×

¿Problemas para descargar con Mozilla, EDGE? Deshabilita la opción "Abrir vinculos en una pestaña nueva" tal como lo muestra ésta imagen.

The Infernal Machine (2022) WEB-DL 1080p Latino

276 vistas

Información de The Infernal Machine (2022) WEB-DL 1080p Latino

Datos de la película

  • Calidad: 1080p
  • Audio: Español Latino AC3 5.1 WEB-DL - Ingles AC3 5.1 WEB-DL
  • Subtitulos: Español Latino SRT- FORZADOS SRT
  • Resolución: 1916x796
  • Formato: MKV
  • Codec: H.264
  • Encoder: cinemaniahdd
  • Mediainfo: Clic para Mostrar Datos Ver
  • The Infernal Machine (2022) WEB-DL 1080p Latino [CNMNHDD].mkv
    Format                      : Matroska
    Format version              : Version 4
    File size                   : 6.51 GiB
    Duration                    : 1 h 52 min
    Overall bit rate            : 8 297 kb/s
    Movie name                  : The Infernal Machine (2022) [1080p] - CinemaniaHDD.Net
    Encoded date                : UTC 2022-09-24 00:37:14
    Writing application         : mkvmerge v56.1.0 ('My Friend') 64-bit
    Writing library             : libebml v1.4.2 + libmatroska v1.6.4

    Video
    ID                          : 1
    Format                      : AVC
    Format/Info                 : Advanced Video Codec
    Format profile              : High@L4
    Format settings             : CABAC / 5 Ref Frames
    Format settings, CABAC      : Yes
    Format settings, Reference  : 5 frames
    Codec ID                    : V_MPEG4/ISO/AVC
    Duration                    : 1 h 51 min
    Bit rate                    : 6 702 kb/s
    Width                       : 1 916 pixels
    Height                      : 796 pixels
    Display aspect ratio        : 2.40:1
    Frame rate mode             : Constant
    Frame rate                  : 23.976 (24000/1001) FPS
    Color space                 : YUV
    Chroma subsampling          : 4:2:0
    Bit depth                   : 8 bits
    Scan type                   : Progressive
    Bits/(Pixel*Frame)          : 0.183
    Stream size                 : 5.20 GiB (80%)
    Title                       : CinemaniaHDD
    Language                    : English
    Default                     : Yes
    Forced                      : No
    Color range                 : Limited
    Color primaries             : BT.709
    Transfer characteristics    : BT.709
    Matrix coefficients         : BT.709

    Audio #1
    ID                          : 2
    Format                      : AC-3
    Format/Info                 : Audio Coding 3
    Commercial name             : Dolby Digital
    Codec ID                    : A_AC3
    Duration                    : 1 h 52 min
    Bit rate mode               : Constant
    Bit rate                    : 640 kb/s
    Channel(s)                  : 6 channels
    Channel layout              : L R C LFE Ls Rs
    Sampling rate               : 48.0 kHz
    Frame rate                  : 31.250 FPS (1536 SPF)
    Compression mode            : Lossy
    Stream size                 : 514 MiB (8%)
    Title                       : Español latino [CinemaniaHDD]
    Language                    : Spanish
    Service kind                : Complete Main
    Default                     : Yes
    Forced                      : No

    Audio #2
    ID                          : 3
    Format                      : E-AC-3
    Format/Info                 : Enhanced AC-3
    Commercial name             : Dolby Digital Plus
    Codec ID                    : A_EAC3
    Duration                    : 1 h 52 min
    Bit rate mode               : Constant
    Bit rate                    : 640 kb/s
    Channel(s)                  : 6 channels
    Channel layout              : L R C LFE Ls Rs
    Sampling rate               : 48.0 kHz
    Frame rate                  : 31.250 FPS (1536 SPF)
    Compression mode            : Lossy
    Stream size                 : 514 MiB (8%)
    Title                       : Español latino / E-AC3 [CinemaniaHDD]
    Language                    : Spanish
    Service kind                : Complete Main
    Default                     : No
    Forced                      : No

    Audio #3
    ID                          : 4
    Format                      : AC-3
    Format/Info                 : Audio Coding 3
    Commercial name             : Dolby Digital
    Codec ID                    : A_AC3
    Duration                    : 1 h 51 min
    Bit rate mode               : Constant
    Bit rate                    : 384 kb/s
    Channel(s)                  : 6 channels
    Channel layout              : L R C LFE Ls Rs
    Sampling rate               : 48.0 kHz
    Frame rate                  : 31.250 FPS (1536 SPF)
    Compression mode            : Lossy
    Stream size                 : 305 MiB (5%)
    Title                       : Inglés [CinemaniaHDD]
    Language                    : English
    Service kind                : Complete Main
    Default                     : No
    Forced                      : No

    Text #1
    ID                          : 5
    Format                      : UTF-8
    Codec ID                    : S_TEXT/UTF8
    Codec ID/Info               : UTF-8 Plain Text
    Duration                    : 1 h 49 min
    Bit rate                    : 2 b/s
    Count of elements           : 60
    Stream size                 : 1.69 KiB (0%)
    Title                       : Forzados [CinemaniaHDD]
    Language                    : Spanish
    Default                     : Yes
    Forced                      : Yes

    Text #2
    ID                          : 6
    Format                      : UTF-8
    Codec ID                    : S_TEXT/UTF8
    Codec ID/Info               : UTF-8 Plain Text
    Duration                    : 1 h 50 min
    Bit rate                    : 43 b/s
    Count of elements           : 1003
    Stream size                 : 35.4 KiB (0%)
    Title                       : Español latino [CinemaniaHDD]
    Language                    : Spanish
    Default                     : No
    Forced                      : No

    Text #3
    ID                          : 7
    Format                      : UTF-8
    Codec ID                    : S_TEXT/UTF8
    Codec ID/Info               : UTF-8 Plain Text
    Duration                    : 1 h 50 min
    Bit rate                    : 49 b/s
    Count of elements           : 1169
    Stream size                 : 39.9 KiB (0%)
    Title                       : Inglés [CinemaniaHDD]
    Language                    : English
    Default                     : No
    Forced                      : No

    Menu
    00:00:00.000                : Chapter 01
    00:07:51.137                : Chapter 02
    00:16:40.125                : Chapter 03
    00:22:55.750                : Chapter 04
    00:31:55.081                : Chapter 05
    00:38:27.182                : Chapter 06
    00:47:45.365                : Chapter 07
    00:56:22.632                : Chapter 08
    01:05:37.854                : Chapter 09
    01:11:03.263                : Chapter 10
    01:18:44.099                : Chapter 11
    01:23:27.215                : Chapter 12
    01:29:29.828                : Chapter 13
    01:39:24.756                : Chapter 14
    01:46:17.043                : Chapter 15

     

  • Peso: 6.51 GiB

Sinopsis

Bruce Cogburn, un autor controversial y solitario, debe salir de su escondite cuando comienza a recibir innumerables cartas de un fanático obsesivo. Convirtiéndose en un peligroso laberinto, cuando busca a la persona detrás de los crípticos mensajes.

Ficha técnica

  • Titulo original: The Infernal Machine
  • Fecha de lanzamiento: 23-09-2022 (Portugal)
  • Director: Andrew Hunt
  • Género: Suspenso

Video trailer de la película

Enlaces de descarga

Rip de Bluray

Descargar The Infernal Machine (2022) WEB-DL 1080p Latino




Aportes de DPeliculasHDmega la pass es:dpeliculashdmega.org Aportes de CinemaniaHD la pass es:cinemaniahdd.com Aportes recientes:cinemaniahdd.net
Guardado en : Suspenso

Películas relacionadas

descargar The Infernal Machine (2022) WEB-DL 1080p Latino 1080p 1080p gratis, The Infernal Machine (2022) WEB-DL 1080p Latino 1080p mega 1 link, The Infernal Machine (2022) WEB-DL 1080p Latino 1080p pelicula completa, descargar The Infernal Machine (2022) WEB-DL 1080p Latino 1080p gratis en mega.

The Infernal Machine (2022) WEB-DL 1080p Latino pelicula full hd, The Infernal Machine (2022) WEB-DL 1080p Latino mega latino, The Infernal Machine (2022) WEB-DL 1080p Latino 4k latino, The Infernal Machine (2022) WEB-DL 1080p Latino pelicula completa, The Infernal Machine (2022) WEB-DL 1080p Latino descargar gratis, descargar The Infernal Machine (2022) WEB-DL 1080p Latino pelicula latino, The Infernal Machine (2022) WEB-DL 1080p Latino 1 link mega, The Infernal Machine (2022) WEB-DL 1080p Latino 1 link google drive, The Infernal Machine (2022) WEB-DL 1080p Latino hd 1080p latino.
Comentarios 0