×

¿Problemas para descargar con Mozilla, EDGE? Deshabilita la opción "Abrir vinculos en una pestaña nueva" tal como lo muestra ésta imagen.

The Infernal Machine (2022) 4K-HDR WEB-DL 2160p Latino

430 vistas

Información de The Infernal Machine (2022) 4K-HDR WEB-DL 2160p Latino

Datos de la película

  • Calidad: 4K HDR
  • Audio: Español Latino AC3 5.1 WEB-DL - Ingles AC3 5.1 WEB-DL
  • Subtitulos: Español Latino SRT- FORZADOS SRT
  • Resolución: 3836x1606
  • Formato: MKV
  • Codec: HEVC
  • Encoder: cinemaniahdd
  • Mediainfo: Clic para Mostrar Datos Ver
  • The Infernal Machine (2022) 4K-HDR WEB-DL 2160p Latino [CNMNHDD].mkv
    Format                      : Matroska
    Format version              : Version 4
    File size                   : 12.4 GiB
    Duration                    : 1 h 52 min
    Overall bit rate            : 15.8 Mb/s
    Movie name                  : The Infernal Machine (2022) [2160p] - CinemaniaHDD.Net
    Encoded date                : UTC 2022-09-24 00:34:48
    Writing application         : mkvmerge v56.1.0 ('My Friend') 64-bit
    Writing library             : libebml v1.4.2 + libmatroska v1.6.4

    Video
    ID                          : 1
    Format                      : HEVC
    Format/Info                 : High Efficiency Video Coding
    Format profile              : Main 10@L5@High
    HDR format                  : SMPTE ST 2086, HDR10 compatible
    Codec ID                    : V_MPEGH/ISO/HEVC
    Duration                    : 1 h 51 min
    Bit rate                    : 14.3 Mb/s
    Width                       : 3 840 pixels
    Height                      : 1 606 pixels
    Display aspect ratio        : 2.40:1
    Frame rate mode             : Constant
    Frame rate                  : 23.976 (24000/1001) FPS
    Color space                 : YUV
    Chroma subsampling          : 4:2:0 (Type 2)
    Bit depth                   : 10 bits
    Bits/(Pixel*Frame)          : 0.097
    Stream size                 : 11.1 GiB (89%)
    Title                       : CinemaniaHDD
    Default                     : Yes
    Forced                      : No
    Color range                 : Limited
    Color primaries             : BT.2020
    Transfer characteristics    : PQ
    Matrix coefficients         : BT.2020 non-constant
    Mastering display color pri : Display P3
    Mastering display luminance : min: 0.0050 cd/m2, max: 1000 cd/m2
    Maximum Content Light Level : 2106 cd/m2
    Maximum Frame-Average Light : 635 cd/m2

    Audio #1
    ID                          : 2
    Format                      : AC-3
    Format/Info                 : Audio Coding 3
    Commercial name             : Dolby Digital
    Codec ID                    : A_AC3
    Duration                    : 1 h 52 min
    Bit rate mode               : Constant
    Bit rate                    : 640 kb/s
    Channel(s)                  : 6 channels
    Channel layout              : L R C LFE Ls Rs
    Sampling rate               : 48.0 kHz
    Frame rate                  : 31.250 FPS (1536 SPF)
    Compression mode            : Lossy
    Stream size                 : 514 MiB (4%)
    Title                       : Español latino [CinemaniaHDD]
    Language                    : Spanish
    Service kind                : Complete Main
    Default                     : Yes
    Forced                      : No

    Audio #2
    ID                          : 3
    Format                      : E-AC-3
    Format/Info                 : Enhanced AC-3
    Commercial name             : Dolby Digital Plus
    Codec ID                    : A_EAC3
    Duration                    : 1 h 52 min
    Bit rate mode               : Constant
    Bit rate                    : 640 kb/s
    Channel(s)                  : 6 channels
    Channel layout              : L R C LFE Ls Rs
    Sampling rate               : 48.0 kHz
    Frame rate                  : 31.250 FPS (1536 SPF)
    Compression mode            : Lossy
    Stream size                 : 514 MiB (4%)
    Title                       : Español latino / E-AC3 [CinemaniaHDD]
    Language                    : Spanish
    Service kind                : Complete Main
    Default                     : No
    Forced                      : No

    Audio #3
    ID                          : 4
    Format                      : AC-3
    Format/Info                 : Audio Coding 3
    Commercial name             : Dolby Digital
    Codec ID                    : A_AC3
    Duration                    : 1 h 51 min
    Bit rate mode               : Constant
    Bit rate                    : 384 kb/s
    Channel(s)                  : 6 channels
    Channel layout              : L R C LFE Ls Rs
    Sampling rate               : 48.0 kHz
    Frame rate                  : 31.250 FPS (1536 SPF)
    Compression mode            : Lossy
    Stream size                 : 305 MiB (2%)
    Title                       : Inglés [CinemaniaHDD]
    Language                    : English
    Service kind                : Complete Main
    Default                     : No
    Forced                      : No

    Text #1
    ID                          : 5
    Format                      : UTF-8
    Codec ID                    : S_TEXT/UTF8
    Codec ID/Info               : UTF-8 Plain Text
    Duration                    : 1 h 49 min
    Bit rate                    : 2 b/s
    Count of elements           : 60
    Stream size                 : 1.69 KiB (0%)
    Title                       : Forzados [CinemaniaHDD]
    Language                    : Spanish
    Default                     : Yes
    Forced                      : Yes

    Text #2
    ID                          : 6
    Format                      : UTF-8
    Codec ID                    : S_TEXT/UTF8
    Codec ID/Info               : UTF-8 Plain Text
    Duration                    : 1 h 50 min
    Bit rate                    : 43 b/s
    Count of elements           : 1003
    Stream size                 : 35.4 KiB (0%)
    Title                       : Español latino [CinemaniaHDD]
    Language                    : Spanish
    Default                     : No
    Forced                      : No

    Text #3
    ID                          : 7
    Format                      : UTF-8
    Codec ID                    : S_TEXT/UTF8
    Codec ID/Info               : UTF-8 Plain Text
    Duration                    : 1 h 50 min
    Bit rate                    : 49 b/s
    Count of elements           : 1169
    Stream size                 : 39.9 KiB (0%)
    Title                       : Inglés [CinemaniaHDD]
    Language                    : English
    Default                     : No
    Forced                      : No

    Menu
    00:00:00.000                : Chapter 01
    00:07:51.137                : Chapter 02
    00:16:40.125                : Chapter 03
    00:22:55.750                : Chapter 04
    00:31:55.081                : Chapter 05
    00:38:27.182                : Chapter 06
    00:47:45.365                : Chapter 07
    00:56:22.632                : Chapter 08
    01:05:37.854                : Chapter 09
    01:11:03.263                : Chapter 10
    01:18:44.099                : Chapter 11
    01:23:27.215                : Chapter 12
    01:29:29.828                : Chapter 13
    01:39:24.756                : Chapter 14
    01:46:17.043                : Chapter 15

     

  • Peso: 12.4 GiB

Sinopsis

Bruce Cogburn, un autor controversial y solitario, debe salir de su escondite cuando comienza a recibir innumerables cartas de un fanático obsesivo. Convirtiéndose en un peligroso laberinto, cuando busca a la persona detrás de los crípticos mensajes.

Ficha técnica

Video trailer de la película

Enlaces de descarga

Rip de Bluray

Descargar The Infernal Machine (2022) 4K-HDR WEB-DL 2160p Latino




Aportes de DPeliculasHDmega la pass es:dpeliculashdmega.org Aportes de CinemaniaHD la pass es:cinemaniahdd.com Aportes recientes:cinemaniahdd.net
Guardado en : 4K HDR , 4K UHD , Suspenso

Películas relacionadas

  • Naturaleza Humana (2022) REMUX 1080p Latino

    Naturaleza Humana (2022) REMUX 1080p Latino

    2022
    Naturaleza Humana (2022) REMUX 1080p Latino

    1h 31m 2022

    Descargar Naturaleza Humana (2022) REMUX 1080p Latino. Una historia sobre la mayoría de edad contada...

    Director: Louie Gibson

    Género: Drama

    Actores: Tim Heidecker

  • Pobres criaturas (2023) WEB-DL 4K UHD HDR Latino

    Pobres criaturas (2023) WEB-DL 4K UHD HDR Latino

    2023
    Pobres criaturas (2023) WEB-DL 4K UHD HDR Latino

    2h 21m 2023

    Descargar Pobres criaturas (2023) WEB-DL 4K UHD HDR Latino. Bella Baxter es una joven revivida por el...

    Director: Yorgos Lanthimos

    Género: 4K HDR

    Actores: Zen Joshua Poisson

  • Sin Aire (The Dive) (2023) AMZN WEB-DL 1080p Latino

    Sin Aire (The Dive) (2023) AMZN WEB-DL 1080p Latino

    2023
    Sin Aire (The Dive) (2023) AMZN WEB-DL 1080p Latino

    1h 31m 2023

    Dos hermanas van a bucear a un hermoso y remoto lugar. Una de las hermanas es golpeada por una roca,...

    Director: Samantha Cassar Ellis

    Género: Suspenso

    Actores: Stella Uhrig

  • Squealer (2023) PCOK WEB-DL 1080p Latino

    Squealer (2023) PCOK WEB-DL 1080p Latino

    2023
    Squealer (2023) PCOK WEB-DL 1080p Latino

    1h 39m 2023

    Un policía local y una trabajadora social, siguen las pistas sobre los casos de personas desaparecidas...

    Director: Andy Armstrong

    Género: Suspenso

    Actores: Wes Chatham

descargar The Infernal Machine (2022) 4K-HDR WEB-DL 2160p Latino 4K HDR 1080p gratis, The Infernal Machine (2022) 4K-HDR WEB-DL 2160p Latino 4K HDR mega 1 link, The Infernal Machine (2022) 4K-HDR WEB-DL 2160p Latino 4K HDR pelicula completa, descargar The Infernal Machine (2022) 4K-HDR WEB-DL 2160p Latino 4K HDR gratis en mega.

The Infernal Machine (2022) 4K-HDR WEB-DL 2160p Latino pelicula full hd, The Infernal Machine (2022) 4K-HDR WEB-DL 2160p Latino mega latino, The Infernal Machine (2022) 4K-HDR WEB-DL 2160p Latino 4k latino, The Infernal Machine (2022) 4K-HDR WEB-DL 2160p Latino pelicula completa, The Infernal Machine (2022) 4K-HDR WEB-DL 2160p Latino descargar gratis, descargar The Infernal Machine (2022) 4K-HDR WEB-DL 2160p Latino pelicula latino, The Infernal Machine (2022) 4K-HDR WEB-DL 2160p Latino 1 link mega, The Infernal Machine (2022) 4K-HDR WEB-DL 2160p Latino 1 link google drive, The Infernal Machine (2022) 4K-HDR WEB-DL 2160p Latino hd 1080p latino.
Comentarios 0