×

¿Problemas para descargar con Mozilla, EDGE? Deshabilita la opción "Abrir vinculos en una pestaña nueva" tal como lo muestra ésta imagen.

The Incredible Burt Wonderstone (2013) REMUX 1080p Latino – CMHDD

98 vistas

Información de The Incredible Burt Wonderstone (2013) REMUX 1080p Latino – CMHDD

Datos de la película

  • Calidad: Full 1080p
  • Audio: Español Latino AC3 5.1 BLURAY - Ingles DTS 5.1 BLURAY
  • Subtitulos: Español Latino SRT- FORZADOS SRT
  • Resolución: 19201080p
  • Formato: MKV
  • Codec: H.264
  • Encoder: Dracarys
  • Mediainfo: Clic para Mostrar Datos Ver
  • Format                      : Matroska
    Format version              : Version 4
    File size                   : 17.1 GiB
    Duration                    : 1 h 40 min
    Overall bit rate mode       : Variable
    Overall bit rate            : 24.5 Mb/s
    Movie name                  : The Incredible Burt Wonderstone (2013) REMUX 1080p Latino - CMHDD
    Encoded date                : UTC 2023-12-09 22:15:42
    Writing application         : mkvmerge v47.0.0 ('Black Flag') 64-bit
    Writing library             : libebml v1.3.10 + libmatroska v1.5.2

    Video
    ID                          : 1
    Format                      : AVC
    Format/Info                 : Advanced Video Codec
    Format profile              : High@L4.1
    Format settings             : CABAC / 2 Ref Frames
    Format settings, CABAC      : Yes
    Format settings, Reference  : 2 frames
    Format settings, GOP        : M=1, N=10
    Codec ID                    : V_MPEG4/ISO/AVC
    Duration                    : 1 h 40 min
    Bit rate mode               : Variable
    Bit rate                    : 20.0 Mb/s
    Width                       : 1 920 pixels
    Height                      : 1 080 pixels
    Display aspect ratio        : 16:9
    Frame rate mode             : Constant
    Frame rate                  : 23.976 (24000/1001) FPS
    Color space                 : YUV
    Chroma subsampling          : 4:2:0
    Bit depth                   : 8 bits
    Scan type                   : Progressive
    Bits/(Pixel*Frame)          : 0.402
    Stream size                 : 14.0 GiB (82%)
    Default                     : Yes
    Forced                      : No

    Audio #1
    ID                          : 2
    Format                      : AC-3
    Format/Info                 : Audio Coding 3
    Commercial name             : Dolby Digital
    Codec ID                    : A_AC3
    Duration                    : 1 h 40 min
    Bit rate mode               : Constant
    Bit rate                    : 448 kb/s
    Channel(s)                  : 6 channels
    Channel layout              : L R C LFE Ls Rs
    Sampling rate               : 48.0 kHz
    Frame rate                  : 31.250 FPS (1536 SPF)
    Compression mode            : Lossy
    Delay relative to video     : 5 ms
    Stream size                 : 321 MiB (2%)
    Language                    : Spanish
    Service kind                : Complete Main
    Default                     : Yes
    Forced                      : Yes

    Audio #2
    ID                          : 3
    Format                      : AC-3
    Format/Info                 : Audio Coding 3
    Commercial name             : Dolby Digital
    Codec ID                    : A_AC3
    Duration                    : 1 h 40 min
    Bit rate mode               : Constant
    Bit rate                    : 640 kb/s
    Channel(s)                  : 6 channels
    Channel layout              : L R C LFE Ls Rs
    Sampling rate               : 48.0 kHz
    Frame rate                  : 31.250 FPS (1536 SPF)
    Compression mode            : Lossy
    Stream size                 : 459 MiB (3%)
    Language                    : English
    Service kind                : Complete Main
    Default                     : No
    Forced                      : No

    Audio #3
    ID                          : 4
    Format                      : DTS XLL
    Format/Info                 : Digital Theater Systems
    Commercial name             : DTS-HD Master Audio
    Codec ID                    : A_DTS
    Duration                    : 1 h 40 min
    Bit rate mode               : Variable
    Bit rate                    : 3 363 kb/s
    Channel(s)                  : 6 channels
    Channel layout              : C L R Ls Rs LFE
    Sampling rate               : 48.0 kHz
    Frame rate                  : 93.750 FPS (512 SPF)
    Bit depth                   : 24 bits
    Compression mode            : Lossless
    Stream size                 : 2.36 GiB (14%)
    Language                    : English
    Default                     : No
    Forced                      : No

    Text #1
    ID                          : 5
    Format                      : UTF-8
    Codec ID                    : S_TEXT/UTF8
    Codec ID/Info               : UTF-8 Plain Text
    Duration                    : 1 h 24 min
    Bit rate                    : 0 b/s
    Frame rate                  : 0.003 FPS
    Count of elements           : 13
    Stream size                 : 338 Bytes (0%)
    Title                       : Forzados
    Language                    : Spanish
    Default                     : Yes
    Forced                      : Yes

    Text #2
    ID                          : 6
    Format                      : UTF-8
    Codec ID                    : S_TEXT/UTF8
    Codec ID/Info               : UTF-8 Plain Text
    Duration                    : 1 h 32 min
    Bit rate                    : 72 b/s
    Frame rate                  : 0.236 FPS
    Count of elements           : 1304
    Stream size                 : 49.0 KiB (0%)
    Language                    : Spanish
    Default                     : No
    Forced                      : No

    Menu
    00:00:00.000                : Chapter 01
    00:08:08.405                : Chapter 02
    00:19:56.445                : Chapter 03
    00:30:13.145                : Chapter 04
    00:39:53.308                : Chapter 05
    00:49:46.150                : Chapter 06
    01:00:48.228                : Chapter 07
    01:10:29.142                : Chapter 08
    01:19:53.163                : Chapter 09
    01:30:04.399                : Chapter 10

     

  • Peso: 17.1 GiB

Sinopsis

Burt Wonderstone, un convencional mago de Las Vegas, está pasando un mal momento: acaba de romper una larga relación romántica con su pareja en el escenario y, por si fuera poco, un nuevo ilusionista, que hace trucos más espectaculares y peligrosos, amenaza con destronarlo.

Ficha técnica

Video trailer de la película

Enlaces de descarga

Rip de Bluray

Descargar The Incredible Burt Wonderstone (2013) REMUX 1080p Latino – CMHDD




Aportes de DPeliculasHDmega la pass es:dpeliculashdmega.org Aportes de CinemaniaHD la pass es:cinemaniahdd.com Aportes recientes:cinemaniahdd.net
Guardado en : Comedia

Películas relacionadas

descargar The Incredible Burt Wonderstone (2013) REMUX 1080p Latino – CMHDD Full 1080p 1080p gratis, The Incredible Burt Wonderstone (2013) REMUX 1080p Latino – CMHDD Full 1080p mega 1 link, The Incredible Burt Wonderstone (2013) REMUX 1080p Latino – CMHDD Full 1080p pelicula completa, descargar The Incredible Burt Wonderstone (2013) REMUX 1080p Latino – CMHDD Full 1080p gratis en mega.

The Incredible Burt Wonderstone (2013) REMUX 1080p Latino – CMHDD pelicula full hd, The Incredible Burt Wonderstone (2013) REMUX 1080p Latino – CMHDD mega latino, The Incredible Burt Wonderstone (2013) REMUX 1080p Latino – CMHDD 4k latino, The Incredible Burt Wonderstone (2013) REMUX 1080p Latino – CMHDD pelicula completa, The Incredible Burt Wonderstone (2013) REMUX 1080p Latino – CMHDD descargar gratis, descargar The Incredible Burt Wonderstone (2013) REMUX 1080p Latino – CMHDD pelicula latino, The Incredible Burt Wonderstone (2013) REMUX 1080p Latino – CMHDD 1 link mega, The Incredible Burt Wonderstone (2013) REMUX 1080p Latino – CMHDD 1 link google drive, The Incredible Burt Wonderstone (2013) REMUX 1080p Latino – CMHDD hd 1080p latino.
Comentarios 0