×

¿Problemas para descargar con Mozilla, EDGE? Deshabilita la opción "Abrir vinculos en una pestaña nueva" tal como lo muestra ésta imagen.

The Impossible (2012) WEB-DL 1080p Latino – CMHDD

85 vistas

Información de The Impossible (2012) WEB-DL 1080p Latino – CMHDD

Datos de la película

  • Calidad: WEBDL
  • Audio: Español Latino AC3 5.1 WEB-DL - Ingles AC3 5.1 WEB-DL
  • Subtitulos: Español Latino SRT- FORZADOS SRT
  • Resolución: 1920x800p
  • Formato: MKV
  • Codec: H.264
  • Encoder: Dracarys
  • Mediainfo: Clic para Mostrar Datos Ver
  • Format                      : Matroska
    Format version              : Version 4
    File size                   : 8.05 GiB
    Duration                    : 1 h 53 min
    Overall bit rate            : 10.1 Mb/s
    Movie name                  : The Impossible (2012) WEB-DL 1080p Latino - CMHDD
    Encoded date                : UTC 2024-04-09 22:13:36
    Writing application         : mkvmerge v47.0.0 ('Black Flag') 64-bit
    Writing library             : libebml v1.3.10 + libmatroska v1.5.2

    Video
    ID                          : 1
    Format                      : AVC
    Format/Info                 : Advanced Video Codec
    Format profile              : High@L4
    Format settings             : CABAC / 4 Ref Frames
    Format settings, CABAC      : Yes
    Format settings, Reference  : 4 frames
    Codec ID                    : V_MPEG4/ISO/AVC
    Duration                    : 1 h 53 min
    Bit rate mode               : Constant
    Bit rate                    : 8 849 kb/s
    Nominal bit rate            : 10 000 kb/s
    Width                       : 1 920 pixels
    Height                      : 816 pixels
    Display aspect ratio        : 2.35:1
    Frame rate mode             : Constant
    Frame rate                  : 23.976 (24000/1001) FPS
    Color space                 : YUV
    Chroma subsampling          : 4:2:0
    Bit depth                   : 8 bits
    Scan type                   : Progressive
    Bits/(Pixel*Frame)          : 0.236
    Stream size                 : 7.03 GiB (87%)
    Default                     : Yes
    Forced                      : No
    Color range                 : Limited
    Color primaries             : BT.709
    Transfer characteristics    : BT.709
    Matrix coefficients         : BT.709

    Audio #1
    ID                          : 2
    Format                      : E-AC-3
    Format/Info                 : Enhanced AC-3
    Commercial name             : Dolby Digital Plus
    Codec ID                    : A_EAC3
    Duration                    : 1 h 53 min
    Bit rate mode               : Constant
    Bit rate                    : 640 kb/s
    Channel(s)                  : 6 channels
    Channel layout              : L R C LFE Ls Rs
    Sampling rate               : 48.0 kHz
    Frame rate                  : 31.250 FPS (1536 SPF)
    Compression mode            : Lossy
    Stream size                 : 520 MiB (6%)
    Language                    : Spanish
    Service kind                : Complete Main
    Default                     : Yes
    Forced                      : Yes

    Audio #2
    ID                          : 3
    Format                      : E-AC-3
    Format/Info                 : Enhanced AC-3
    Commercial name             : Dolby Digital Plus
    Codec ID                    : A_EAC3
    Duration                    : 1 h 53 min
    Bit rate mode               : Constant
    Bit rate                    : 640 kb/s
    Channel(s)                  : 6 channels
    Channel layout              : L R C LFE Ls Rs
    Sampling rate               : 48.0 kHz
    Frame rate                  : 31.250 FPS (1536 SPF)
    Compression mode            : Lossy
    Stream size                 : 520 MiB (6%)
    Language                    : English
    Service kind                : Complete Main
    Default                     : No
    Forced                      : No

    Text #1
    ID                          : 4
    Format                      : UTF-8
    Codec ID                    : S_TEXT/UTF8
    Codec ID/Info               : UTF-8 Plain Text
    Duration                    : 1 h 41 min
    Bit rate                    : 0 b/s
    Frame rate                  : 0.001 FPS
    Count of elements           : 8
    Stream size                 : 383 Bytes (0%)
    Title                       : Forzados
    Language                    : Spanish
    Default                     : Yes
    Forced                      : Yes

    Text #2
    ID                          : 5
    Format                      : UTF-8
    Codec ID                    : S_TEXT/UTF8
    Codec ID/Info               : UTF-8 Plain Text
    Duration                    : 1 h 52 min
    Bit rate                    : 25 b/s
    Frame rate                  : 0.120 FPS
    Count of elements           : 811
    Stream size                 : 21.4 KiB (0%)
    Language                    : Spanish
    Default                     : No
    Forced                      : No

     

  • Peso: 8.05 GiB

Sinopsis

María, Henry y sus tres hijos comienzan sus vacaciones de invierno en Tailandia en busca de unos días en un paraiso tropical. Pero en la mañana del 26 de Diciembre, mientras disfrutan de sus relajantes vacaciones en la piscina tras la celebración de la Navidad y Nochebuena, un terrible rugido emerge del centro de la tierra. Mientras María se paraliza de miedo, un inmenso muro de agua oscura corre por los jardines del hotel hacia ella. Largometraje sobre el tsunami que azotó el sudeste asiático en 2004.

Ficha técnica

  • Titulo original: The Impossible
  • Fecha de lanzamiento: 09-09-2012 (Spain, Thailand, United States of America)
  • Director: J. A. Bayona
  • Género: Aventura, Drama, Suspenso

Video trailer de la película

Enlaces de descarga

Rip de Bluray

Descargar The Impossible (2012) WEB-DL 1080p Latino – CMHDD




Aportes de DPeliculasHDmega la pass es:dpeliculashdmega.org Aportes de CinemaniaHD la pass es:cinemaniahdd.com Aportes recientes:cinemaniahdd.net
Guardado en : Aventura , Drama , Suspenso

Películas relacionadas

  • Red de venganza (2023) HD 1080p Latino

    Red de venganza (2023) HD 1080p Latino

    2023
    Red de venganza (2023) HD 1080p Latino

    1h 25m 2023

    Descargar Red de venganza (2023) HD 1080p Latino. Analiza los problemas que surgen entre una madre (Summer...

    Director: Amy Redford

    Género: Drama

    Actores: Summer Phoenix

  • Red de venganza (2023) REMUX 1080p Latino

    Red de venganza (2023) REMUX 1080p Latino

    2023
    Red de venganza (2023) REMUX 1080p Latino

    1h 25m 2023

    Descargar Red de venganza (2023) REMUX 1080p Latino. Analiza los problemas que surgen entre una madre...

    Director: Amy Redford

    Género: Drama

    Actores: Summer Phoenix

  • Recuerdos Mortales (2024) WEB-DL 1080p Latino

    Recuerdos Mortales (2024) WEB-DL 1080p Latino

    2024
    Recuerdos Mortales (2024) WEB-DL 1080p Latino

    1h 52m 2024

    Descargar Recuerdos Mortales (2024) WEB-DL 1080p Latino. Después de someterse a un tratamiento de vanguardia...

    Director: Adam Cooper

    Género: Crimen

    Actores: Tommy Flanagan

descargar The Impossible (2012) WEB-DL 1080p Latino – CMHDD WEBDL 1080p gratis, The Impossible (2012) WEB-DL 1080p Latino – CMHDD WEBDL mega 1 link, The Impossible (2012) WEB-DL 1080p Latino – CMHDD WEBDL pelicula completa, descargar The Impossible (2012) WEB-DL 1080p Latino – CMHDD WEBDL gratis en mega.

The Impossible (2012) WEB-DL 1080p Latino – CMHDD pelicula full hd, The Impossible (2012) WEB-DL 1080p Latino – CMHDD mega latino, The Impossible (2012) WEB-DL 1080p Latino – CMHDD 4k latino, The Impossible (2012) WEB-DL 1080p Latino – CMHDD pelicula completa, The Impossible (2012) WEB-DL 1080p Latino – CMHDD descargar gratis, descargar The Impossible (2012) WEB-DL 1080p Latino – CMHDD pelicula latino, The Impossible (2012) WEB-DL 1080p Latino – CMHDD 1 link mega, The Impossible (2012) WEB-DL 1080p Latino – CMHDD 1 link google drive, The Impossible (2012) WEB-DL 1080p Latino – CMHDD hd 1080p latino.
Comentarios 0