×

¿Problemas para descargar con Mozilla, EDGE? Deshabilita la opción "Abrir vinculos en una pestaña nueva" tal como lo muestra ésta imagen.

The Huntsman Winter’s War (2016) [EXTENDED] REMUX 4K HDR Latino – CMHDD

149 vistas

Información de The Huntsman Winter’s War (2016) [EXTENDED] REMUX 4K HDR Latino – CMHDD

Datos de la película

  • Calidad: 4K HDR
  • Audio: Español Latino DTS 5.1 BLURAY - Ingles DTS-HD Master 7.1 BLURAY
  • Subtitulos: Español Latino PGS
  • Resolución: 3840x2160p
  • Formato: MKV
  • Codec: H.264
  • Encoder: Dracarys
  • Mediainfo: Clic para Mostrar Datos Ver
  • Format                      : Matroska
    Format version              : Version 4
    File size                   : 48.2 GiB
    Duration                    : 2 h 0 min
    Overall bit rate mode       : Variable
    Overall bit rate            : 57.4 Mb/s
    Movie name                  : The Huntsman Winter's War (2016) [EXTENDED] REMUX 4K HDR Latino - CMHDD
    Encoded date                : UTC 2021-07-04 20:30:24
    Writing application         : mkvmerge v56.1.0 ('My Friend') 64-bit
    Writing library             : libebml v1.4.2 + libmatroska v1.6.4
    Cover                       : Yes
    Attachments                 : cover.jpg

    Video
    ID                          : 1
    Format                      : HEVC
    Format/Info                 : High Efficiency Video Coding
    Format profile              : Main 10@L5.1@High
    HDR format                  : SMPTE ST 2086, HDR10 compatible
    Codec ID                    : V_MPEGH/ISO/HEVC
    Duration                    : 2 h 0 min
    Bit rate                    : 52.8 Mb/s
    Width                       : 3 840 pixels
    Height                      : 2 160 pixels
    Display aspect ratio        : 16:9
    Frame rate mode             : Constant
    Frame rate                  : 23.976 (24000/1001) FPS
    Color space                 : YUV
    Chroma subsampling          : 4:2:0 (Type 2)
    Bit depth                   : 10 bits
    Bits/(Pixel*Frame)          : 0.265
    Stream size                 : 44.3 GiB (92%)
    Writing library             : ATEME Titan KFE 3.7.3 (4.7.3.1003)
    Default                     : Yes
    Forced                      : No
    Color range                 : Limited
    Color primaries             : BT.2020
    Transfer characteristics    : PQ
    Matrix coefficients         : BT.2020 non-constant
    Mastering display color pri : Display P3
    Mastering display luminance : min: 0.0050 cd/m2, max: 1000 cd/m2
    Maximum Content Light Level : 1000 cd/m2
    Maximum Frame-Average Light : 400 cd/m2

    Audio #1
    ID                          : 2
    Format                      : DTS XLL X
    Format/Info                 : Digital Theater Systems
    Commercial name             : DTS-HD Master Audio
    Codec ID                    : A_DTS
    Duration                    : 2 h 0 min
    Bit rate mode               : Variable
    Bit rate                    : 3 860 kb/s
    Channel(s)                  : 8 channels
    Channel(s)_Original         : Object Based
    ChannelLayout_Original      : Object Based
    Sampling rate               : 48.0 kHz
    Frame rate                  : 93.750 FPS (512 SPF)
    Bit depth                   : 24 bits
    Stream size                 : 3.24 GiB (7%)
    Language                    : English
    Default                     : No
    Forced                      : No

    Audio #2
    ID                          : 3
    Format                      : DTS
    Format/Info                 : Digital Theater Systems
    Codec ID                    : A_DTS
    Duration                    : 2 h 0 min
    Bit rate mode               : Constant
    Bit rate                    : 768 kb/s
    Channel(s)                  : 6 channels
    Channel layout              : C L R Ls Rs LFE
    Sampling rate               : 48.0 kHz
    Frame rate                  : 93.750 FPS (512 SPF)
    Bit depth                   : 24 bits
    Compression mode            : Lossy
    Stream size                 : 660 MiB (1%)
    Language                    : Spanish
    Default                     : Yes
    Forced                      : No

    Text #1
    ID                          : 4
    Format                      : PGS
    Muxing mode                 : zlib
    Codec ID                    : S_HDMV/PGS
    Codec ID/Info               : Picture based subtitle format used on BDs/HD-DVDs
    Duration                    : 1 h 59 min
    Bit rate                    : 21.0 kb/s
    Count of elements           : 2276
    Stream size                 : 17.9 MiB (0%)
    Language                    : Spanish
    Default                     : No
    Forced                      : No

    Text #2
    ID                          : 5
    Format                      : PGS
    Muxing mode                 : zlib
    Codec ID                    : S_HDMV/PGS
    Codec ID/Info               : Picture based subtitle format used on BDs/HD-DVDs
    Duration                    : 1 h 58 min
    Bit rate                    : 63 b/s
    Count of elements           : 22
    Stream size                 : 54.9 KiB (0%)
    Language                    : Spanish
    Default                     : Yes
    Forced                      : No

    Menu
    00:00:00.000                : Chapter 01
    00:06:26.427                : Chapter 02
    00:09:26.857                : Chapter 03
    00:15:03.193                : Chapter 04
    00:21:33.500                : Chapter 05
    00:30:17.857                : Chapter 06
    00:36:08.165                : Chapter 07
    00:40:55.661                : Chapter 08
    00:46:56.438                : Chapter 09
    00:52:05.747                : Chapter 10
    00:59:35.530                : Chapter 11
    01:04:23.943                : Chapter 12
    01:11:16.688                : Chapter 13
    01:15:19.222                : Chapter 14
    01:22:42.832                : Chapter 15
    01:28:15.206                : Chapter 16
    01:33:58.007                : Chapter 17
    01:39:21.955                : Chapter 18
    01:48:13.903                : Chapter 19
    01:50:19.571                : Chapter 20

  • Peso: 48.2 GiB

Sinopsis

Mucho antes de ser apuñalada y vencida por Blancanieves, la malvada reina Ravenna (Theron) fue testigo de cómo su hermana Freya (Blunt) sufría una desgarradora traición y huía del reino. Freya vive desde entonces en un lejano palacio invernal, donde ha creado una legión de cazadores, pero descubre que Eric (Hemsworth) y la guerrera Sara (Chastain) han incumplido la única regla impuesta a los soldados: desterrar el amor eternamente de sus corazones. Al enterarse de que su hermana ha muerto, Freya reúne a los cazadores y les ordena traer el espejo mágico de la única hechicera capaz de destruir su poder. Pero cuando comprueba que puede resucitar a Ravenna, las malvadas hermanas siembran el terror en el reino encantado. El único peligro que las amenaza es que Eric y Sara sean capaces de superar todos los peligros para reencontrarse.

Ficha técnica

Video trailer de la película

Enlaces de descarga

Rip de Bluray

Descargar The Huntsman Winter’s War (2016) [EXTENDED] REMUX 4K HDR Latino – CMHDD


Aportes de DPeliculasHDmega la pass es:dpeliculashdmega.org Aportes de CinemaniaHD la pass es:cinemaniahdd.com
Guardado en : Acción , Aventura , Drama

Películas relacionadas

descargar The Huntsman Winter’s War (2016) [EXTENDED] REMUX 4K HDR Latino – CMHDD 4K HDR 1080p gratis, The Huntsman Winter’s War (2016) [EXTENDED] REMUX 4K HDR Latino – CMHDD 4K HDR mega 1 link, The Huntsman Winter’s War (2016) [EXTENDED] REMUX 4K HDR Latino – CMHDD 4K HDR pelicula completa, descargar The Huntsman Winter’s War (2016) [EXTENDED] REMUX 4K HDR Latino – CMHDD 4K HDR gratis en mega.

The Huntsman Winter’s War (2016) [EXTENDED] REMUX 4K HDR Latino – CMHDD pelicula full hd, The Huntsman Winter’s War (2016) [EXTENDED] REMUX 4K HDR Latino – CMHDD mega latino, The Huntsman Winter’s War (2016) [EXTENDED] REMUX 4K HDR Latino – CMHDD 4k latino, The Huntsman Winter’s War (2016) [EXTENDED] REMUX 4K HDR Latino – CMHDD pelicula completa, The Huntsman Winter’s War (2016) [EXTENDED] REMUX 4K HDR Latino – CMHDD descargar gratis, descargar The Huntsman Winter’s War (2016) [EXTENDED] REMUX 4K HDR Latino – CMHDD pelicula latino, The Huntsman Winter’s War (2016) [EXTENDED] REMUX 4K HDR Latino – CMHDD 1 link mega, The Huntsman Winter’s War (2016) [EXTENDED] REMUX 4K HDR Latino – CMHDD 1 link google drive, The Huntsman Winter’s War (2016) [EXTENDED] REMUX 4K HDR Latino – CMHDD hd 1080p latino.
Comentarios 0