×

¿Problemas para descargar con Mozilla, EDGE? Deshabilita la opción "Abrir vinculos en una pestaña nueva" tal como lo muestra ésta imagen.

The Huntsman Winter’s War (2016) [EXTENDED] REMUX 1080p Latino – CMHDD

244 vistas

Información de The Huntsman Winter’s War (2016) [EXTENDED] REMUX 1080p Latino – CMHDD

Datos de la película

  • Calidad: Full 1080p
  • Audio: Español Latino DTS 5.1 BLURAY - Ingles DTS-HD Master 7.1 BLURAY
  • Subtitulos: Español Latino PGS
  • Resolución: 1920x1080p
  • Formato: MKV
  • Codec: H.264
  • Encoder: Dracarys
  • Mediainfo: Clic para Mostrar Datos Ver
  • Format                      : Matroska
    Format version              : Version 4
    File size                   : 26.1 GiB
    Duration                    : 2 h 0 min
    Overall bit rate mode       : Variable
    Overall bit rate            : 31.1 Mb/s
    Movie name                  : The Huntsman: Winter's War (2016) [EXTENDED] REMUX 1080p Latino - CMHDD
    Encoded date                : UTC 2021-07-04 20:17:08
    Writing application         : mkvmerge v56.1.0 ('My Friend') 64-bit
    Writing library             : libebml v1.4.2 + libmatroska v1.6.4
    Cover                       : Yes
    Attachments                 : cover.jpg

    Video
    ID                          : 1
    Format                      : AVC
    Format/Info                 : Advanced Video Codec
    Format profile              : High@L4.1
    Format settings             : CABAC / 4 Ref Frames
    Format settings, CABAC      : Yes
    Format settings, Reference  : 4 frames
    Format settings, GOP        : M=3, N=12
    Codec ID                    : V_MPEG4/ISO/AVC
    Duration                    : 2 h 0 min
    Bit rate mode               : Variable
    Bit rate                    : 25.3 Mb/s
    Maximum bit rate            : 30.0 Mb/s
    Width                       : 1 920 pixels
    Height                      : 1 080 pixels
    Display aspect ratio        : 16:9
    Frame rate mode             : Constant
    Frame rate                  : 23.976 (24000/1001) FPS
    Color space                 : YUV
    Chroma subsampling          : 4:2:0
    Bit depth                   : 8 bits
    Scan type                   : Progressive
    Bits/(Pixel*Frame)          : 0.509
    Stream size                 : 21.2 GiB (81%)
    Default                     : Yes
    Forced                      : No

    Audio #1
    ID                          : 2
    Format                      : DTS XLL X
    Format/Info                 : Digital Theater Systems
    Commercial name             : DTS-HD Master Audio
    Codec ID                    : A_DTS
    Duration                    : 2 h 0 min
    Bit rate mode               : Variable
    Bit rate                    : 3 859 kb/s
    Channel(s)                  : 8 channels
    Channel(s)_Original         : Object Based
    ChannelLayout_Original      : Object Based
    Sampling rate               : 48.0 kHz
    Frame rate                  : 93.750 FPS (512 SPF)
    Bit depth                   : 24 bits
    Stream size                 : 3.24 GiB (12%)
    Language                    : English
    Default                     : No
    Forced                      : No

    Audio #2
    ID                          : 3
    Format                      : DTS
    Format/Info                 : Digital Theater Systems
    Codec ID                    : A_DTS
    Duration                    : 2 h 0 min
    Bit rate mode               : Constant
    Bit rate                    : 384 kb/s
    Channel(s)                  : 2 channels
    Channel layout              : L R
    Sampling rate               : 48.0 kHz
    Frame rate                  : 93.750 FPS (512 SPF)
    Bit depth                   : 24 bits
    Compression mode            : Lossy
    Stream size                 : 330 MiB (1%)
    Language                    : English
    Default                     : No
    Forced                      : No

    Audio #3
    ID                          : 4
    Format                      : DTS
    Format/Info                 : Digital Theater Systems
    Codec ID                    : A_DTS
    Duration                    : 2 h 0 min
    Bit rate mode               : Constant
    Bit rate                    : 1 509 kb/s
    Channel(s)                  : 6 channels
    Channel layout              : C L R Ls Rs LFE
    Sampling rate               : 48.0 kHz
    Frame rate                  : 93.750 FPS (512 SPF)
    Bit depth                   : 24 bits
    Compression mode            : Lossy
    Stream size                 : 1.27 GiB (5%)
    Language                    : Spanish
    Default                     : Yes
    Forced                      : No

    Text #1
    ID                          : 5
    Format                      : PGS
    Muxing mode                 : zlib
    Codec ID                    : S_HDMV/PGS
    Codec ID/Info               : Picture based subtitle format used on BDs/HD-DVDs
    Duration                    : 1 h 59 min
    Bit rate                    : 20.5 kb/s
    Count of elements           : 2288
    Stream size                 : 17.5 MiB (0%)
    Language                    : Spanish
    Default                     : No
    Forced                      : No

    Text #2
    ID                          : 6
    Format                      : PGS
    Muxing mode                 : zlib
    Codec ID                    : S_HDMV/PGS
    Codec ID/Info               : Picture based subtitle format used on BDs/HD-DVDs
    Duration                    : 1 h 59 min
    Bit rate                    : 42.5 kb/s
    Count of elements           : 3109
    Stream size                 : 36.3 MiB (0%)
    Language                    : Spanish
    Default                     : No
    Forced                      : No

    Text #3
    ID                          : 7
    Format                      : UTF-8
    Codec ID                    : S_TEXT/UTF8
    Codec ID/Info               : UTF-8 Plain Text
    Duration                    : 5 s 671 ms
    Bit rate                    : 93 b/s
    Count of elements           : 1
    Stream size                 : 66.0 Bytes (0%)
    Language                    : Spanish
    Default                     : Yes
    Forced                      : No

    Text #4
    ID                          : 8
    Format                      : UTF-8
    Codec ID                    : S_TEXT/UTF8
    Codec ID/Info               : UTF-8 Plain Text
    Duration                    : 1 h 49 min
    Bit rate                    : 37 b/s
    Count of elements           : 1139
    Stream size                 : 29.8 KiB (0%)
    Language                    : Spanish
    Default                     : No
    Forced                      : No

    Menu
    00:00:00.000                : Chapter 01
    00:06:26.427                : Chapter 02
    00:09:26.857                : Chapter 03
    00:15:03.193                : Chapter 04
    00:21:33.500                : Chapter 05
    00:30:17.857                : Chapter 06
    00:36:08.165                : Chapter 07
    00:40:55.661                : Chapter 08
    00:46:56.438                : Chapter 09
    00:52:05.747                : Chapter 10
    00:59:35.530                : Chapter 11
    01:04:23.943                : Chapter 12
    01:11:16.688                : Chapter 13
    01:15:19.222                : Chapter 14
    01:22:42.832                : Chapter 15
    01:28:15.206                : Chapter 16
    01:33:58.007                : Chapter 17
    01:39:21.955                : Chapter 18
    01:48:13.903                : Chapter 19
    01:50:19.571                : Chapter 20

  • Peso: 26.1 GiB

Sinopsis

Mucho antes de ser apuñalada y vencida por Blancanieves, la malvada reina Ravenna (Theron) fue testigo de cómo su hermana Freya (Blunt) sufría una desgarradora traición y huía del reino. Freya vive desde entonces en un lejano palacio invernal, donde ha creado una legión de cazadores, pero descubre que Eric (Hemsworth) y la guerrera Sara (Chastain) han incumplido la única regla impuesta a los soldados: desterrar el amor eternamente de sus corazones. Al enterarse de que su hermana ha muerto, Freya reúne a los cazadores y les ordena traer el espejo mágico de la única hechicera capaz de destruir su poder. Pero cuando comprueba que puede resucitar a Ravenna, las malvadas hermanas siembran el terror en el reino encantado. El único peligro que las amenaza es que Eric y Sara sean capaces de superar todos los peligros para reencontrarse.

Ficha técnica

Video trailer de la película

Enlaces de descarga

Rip de Bluray

Descargar The Huntsman Winter’s War (2016) [EXTENDED] REMUX 1080p Latino – CMHDD


Aportes de DPeliculasHDmega la pass es:dpeliculashdmega.org Aportes de CinemaniaHD la pass es:cinemaniahdd.com
Guardado en : Acción , Aventura , Drama

Películas relacionadas

  • Paradise Highway (2022) HD 1080p Latino

    Paradise Highway (2022) HD 1080p Latino

    2022
    Paradise Highway (2022) HD 1080p Latino

    1h 55m 2022

    Descargar Paradise Highway (2022) HD 1080p Latino. Un camionero se ha visto obligado a pasar de contrabando...

    Director: Anna Gutto

    Género: Crimen

    Actores: Xavier Scott Evans

  • Paradise Highway (2022) PLACEBO Full HD 1080p Latino

    Paradise Highway (2022) PLACEBO Full HD 1080p Latino

    2022
    Paradise Highway (2022) PLACEBO Full HD 1080p Latino

    1h 55m 2022

    Descargar Paradise Highway (2022) PLACEBO Full HD 1080p Latino. Un camionero se ha visto obligado a pasar...

    Director: Anna Gutto

    Género: Crimen

    Actores: Xavier Scott Evans

  • Paradise Highway (2022) REMUX 1080p Latino

    Paradise Highway (2022) REMUX 1080p Latino

    2022
    Paradise Highway (2022) REMUX 1080p Latino

    1h 55m 2022

    Descargar Paradise Highway (2022) REMUX 1080p Latino. Un camionero se ha visto obligado a pasar de contrabando...

    Director: Anna Gutto

    Género: Crimen

    Actores: Xavier Scott Evans

  • Shotgun Wedding (2022) AMZN WEB-DL 1080p Latino

    Shotgun Wedding (2022) AMZN WEB-DL 1080p Latino

    2022
    Shotgun Wedding (2022) AMZN WEB-DL 1080p Latino

    1h 41m 2022

    Darcy y Tom reúnen a sus familias para la boda de destino definitiva, pero cuando toman como rehenes...

    Director: Jason Moore

    Género: Acción

    Actores: Steve Coulter

descargar The Huntsman Winter’s War (2016) [EXTENDED] REMUX 1080p Latino – CMHDD Full 1080p 1080p gratis, The Huntsman Winter’s War (2016) [EXTENDED] REMUX 1080p Latino – CMHDD Full 1080p mega 1 link, The Huntsman Winter’s War (2016) [EXTENDED] REMUX 1080p Latino – CMHDD Full 1080p pelicula completa, descargar The Huntsman Winter’s War (2016) [EXTENDED] REMUX 1080p Latino – CMHDD Full 1080p gratis en mega.

The Huntsman Winter’s War (2016) [EXTENDED] REMUX 1080p Latino – CMHDD pelicula full hd, The Huntsman Winter’s War (2016) [EXTENDED] REMUX 1080p Latino – CMHDD mega latino, The Huntsman Winter’s War (2016) [EXTENDED] REMUX 1080p Latino – CMHDD 4k latino, The Huntsman Winter’s War (2016) [EXTENDED] REMUX 1080p Latino – CMHDD pelicula completa, The Huntsman Winter’s War (2016) [EXTENDED] REMUX 1080p Latino – CMHDD descargar gratis, descargar The Huntsman Winter’s War (2016) [EXTENDED] REMUX 1080p Latino – CMHDD pelicula latino, The Huntsman Winter’s War (2016) [EXTENDED] REMUX 1080p Latino – CMHDD 1 link mega, The Huntsman Winter’s War (2016) [EXTENDED] REMUX 1080p Latino – CMHDD 1 link google drive, The Huntsman Winter’s War (2016) [EXTENDED] REMUX 1080p Latino – CMHDD hd 1080p latino.
Comentarios 0