×

¿Problemas para descargar con Mozilla, EDGE? Deshabilita la opción "Abrir vinculos en una pestaña nueva" tal como lo muestra ésta imagen.

The Hunger Games The Ballad of Songbirds & Snakes (2023) WEB-DL 1080p Latino – CMHDD

103 vistas

Información de The Hunger Games The Ballad of Songbirds & Snakes (2023) WEB-DL 1080p Latino – CMHDD

Datos de la película

  • Calidad: 1080p
  • Audio: Español Latino AC3 5.1 WEB-DL - Ingles AC3 5.1 WEB-DL
  • Subtitulos: Español Latino SRT- FORZADOS SRT
  • Resolución: 1920x800p
  • Formato:
  • Codec: H.264
  • Encoder: Dracarys
  • Mediainfo: Clic para Mostrar Datos Ver
  • Format                      : Matroska
    Format version              : Version 4
    File size                   : 10.5 GiB
    Duration                    : 2 h 37 min
    Overall bit rate            : 9 527 kb/s
    Movie name                  : The Hunger Games The Ballad of Songbirds & Snakes (2023) WEB-DL 1080p Latino - CMHDD
    Encoded date                : UTC 2023-12-19 20:39:28
    Writing application         : mkvmerge v47.0.0 ('Black Flag') 64-bit
    Writing library             : libebml v1.3.10 + libmatroska v1.5.2

    Video
    ID                          : 1
    Format                      : AVC
    Format/Info                 : Advanced Video Codec
    Format profile              : High@L4
    Format settings             : CABAC / 4 Ref Frames
    Format settings, CABAC      : Yes
    Format settings, Reference  : 4 frames
    Codec ID                    : V_MPEG4/ISO/AVC
    Duration                    : 2 h 37 min
    Bit rate mode               : Constant
    Bit rate                    : 7 476 kb/s
    Nominal bit rate            : 10 000 kb/s
    Width                       : 1 920 pixels
    Height                      : 800 pixels
    Display aspect ratio        : 2.40:1
    Frame rate mode             : Constant
    Frame rate                  : 23.976 (24000/1001) FPS
    Color space                 : YUV
    Chroma subsampling          : 4:2:0
    Bit depth                   : 8 bits
    Scan type                   : Progressive
    Bits/(Pixel*Frame)          : 0.203
    Stream size                 : 8.21 GiB (78%)
    Language                    : English
    Default                     : Yes
    Forced                      : No
    Color range                 : Limited
    Color primaries             : BT.709
    Transfer characteristics    : BT.709
    Matrix coefficients         : BT.709

    Audio #1
    ID                          : 2
    Format                      : AC-3
    Format/Info                 : Audio Coding 3
    Commercial name             : Dolby Digital
    Codec ID                    : A_AC3
    Duration                    : 2 h 37 min
    Bit rate mode               : Constant
    Bit rate                    : 640 kb/s
    Channel(s)                  : 6 channels
    Channel layout              : L R C LFE Ls Rs
    Sampling rate               : 48.0 kHz
    Frame rate                  : 31.250 FPS (1536 SPF)
    Compression mode            : Lossy
    Stream size                 : 719 MiB (7%)
    Language                    : Spanish
    Service kind                : Complete Main
    Default                     : No
    Forced                      : Yes

    Audio #2
    ID                          : 3
    Format                      : E-AC-3
    Format/Info                 : Enhanced AC-3
    Commercial name             : Dolby Digital Plus
    Codec ID                    : A_EAC3
    Duration                    : 2 h 37 min
    Bit rate mode               : Constant
    Bit rate                    : 640 kb/s
    Channel(s)                  : 6 channels
    Channel layout              : L R C LFE Ls Rs
    Sampling rate               : 48.0 kHz
    Frame rate                  : 31.250 FPS (1536 SPF)
    Compression mode            : Lossy
    Stream size                 : 719 MiB (7%)
    Language                    : Spanish
    Service kind                : Complete Main
    Default                     : Yes
    Forced                      : Yes

    Audio #3
    ID                          : 4
    Format                      : E-AC-3 JOC
    Format/Info                 : Enhanced AC-3 with Joint Object Coding
    Commercial name             : Dolby Digital Plus with Dolby Atmos
    Codec ID                    : A_EAC3
    Duration                    : 2 h 37 min
    Bit rate mode               : Constant
    Bit rate                    : 768 kb/s
    Channel(s)                  : 6 channels
    Channel layout              : L R C LFE Ls Rs
    Sampling rate               : 48.0 kHz
    Frame rate                  : 31.250 FPS (1536 SPF)
    Compression mode            : Lossy
    Delay relative to video     : 19 ms
    Stream size                 : 863 MiB (8%)
    Language                    : English
    Service kind                : Complete Main
    Default                     : No
    Forced                      : No
    Complexity index            : 16
    Number of dynamic objects   : 15
    Bed channel count           : 1 channel
    Bed channel configuration   : LFE

    Text #1
    ID                          : 5
    Format                      : UTF-8
    Codec ID                    : S_TEXT/UTF8
    Codec ID/Info               : UTF-8 Plain Text
    Duration                    : 2 h 17 min
    Bit rate                    : 3 b/s
    Frame rate                  : 0.019 FPS
    Count of elements           : 158
    Stream size                 : 3.93 KiB (0%)
    Title                       : Forzados
    Language                    : Spanish
    Default                     : Yes
    Forced                      : Yes

    Text #2
    ID                          : 6
    Format                      : UTF-8
    Codec ID                    : S_TEXT/UTF8
    Codec ID/Info               : UTF-8 Plain Text
    Duration                    : 2 h 26 min
    Bit rate                    : 55 b/s
    Frame rate                  : 0.237 FPS
    Count of elements           : 2088
    Stream size                 : 59.4 KiB (0%)
    Language                    : Spanish
    Default                     : No
    Forced                      : No

     

  • Peso: 10.5 GiB

Sinopsis

Ambientada en un Panem postapocalíptico, nos hace retroceder varias décadas antes del comienzo de las aventuras de Katniss Everdeen. El joven Coriolanus Snow será el mentor de Lucy Gray Baird, la niña seleccionada como tributo del empobrecido Distrito 12. La joven sorprenderá a todos al cantar en la ceremonia de inauguración de los Décimos Juegos del Hambre en los que Snow intentará aprovecharse de su talento y encanto para sobrevivir.

Ficha técnica

Video trailer de la película

Enlaces de descarga

Rip de Bluray

Descargar The Hunger Games The Ballad of Songbirds & Snakes (2023) WEB-DL 1080p Latino – CMHDD




Aportes de DPeliculasHDmega la pass es:dpeliculashdmega.org Aportes de CinemaniaHD la pass es:cinemaniahdd.com Aportes recientes:cinemaniahdd.net
Guardado en : Acción , Ciencia ficción , Drama

Películas relacionadas

descargar The Hunger Games The Ballad of Songbirds & Snakes (2023) WEB-DL 1080p Latino – CMHDD 1080p 1080p gratis, The Hunger Games The Ballad of Songbirds & Snakes (2023) WEB-DL 1080p Latino – CMHDD 1080p mega 1 link, The Hunger Games The Ballad of Songbirds & Snakes (2023) WEB-DL 1080p Latino – CMHDD 1080p pelicula completa, descargar The Hunger Games The Ballad of Songbirds & Snakes (2023) WEB-DL 1080p Latino – CMHDD 1080p gratis en mega.

The Hunger Games The Ballad of Songbirds & Snakes (2023) WEB-DL 1080p Latino – CMHDD pelicula full hd, The Hunger Games The Ballad of Songbirds & Snakes (2023) WEB-DL 1080p Latino – CMHDD mega latino, The Hunger Games The Ballad of Songbirds & Snakes (2023) WEB-DL 1080p Latino – CMHDD 4k latino, The Hunger Games The Ballad of Songbirds & Snakes (2023) WEB-DL 1080p Latino – CMHDD pelicula completa, The Hunger Games The Ballad of Songbirds & Snakes (2023) WEB-DL 1080p Latino – CMHDD descargar gratis, descargar The Hunger Games The Ballad of Songbirds & Snakes (2023) WEB-DL 1080p Latino – CMHDD pelicula latino, The Hunger Games The Ballad of Songbirds & Snakes (2023) WEB-DL 1080p Latino – CMHDD 1 link mega, The Hunger Games The Ballad of Songbirds & Snakes (2023) WEB-DL 1080p Latino – CMHDD 1 link google drive, The Hunger Games The Ballad of Songbirds & Snakes (2023) WEB-DL 1080p Latino – CMHDD hd 1080p latino.
Comentarios 0