×

¿Problemas para descargar con Mozilla, EDGE? Deshabilita la opción "Abrir vinculos en una pestaña nueva" tal como lo muestra ésta imagen.

Los juegos del hambre: La balada de pájaros cantores y serpientes (2023) HD 1080p Latino-CMHDD

88 vistas

Información de Los juegos del hambre: La balada de pájaros cantores y serpientes (2023) HD 1080p Latino-CMHDD

Datos de la película

  • Calidad: 1080p
  • Audio: Español Latino AC3 5.1 BLURAY - Ingles AC3 5.1 BLURAY
  • Subtitulos: Español Latino SRT- FORZADOS SRT
  • Resolución: 1920x804p
  • Formato: MKV
  • Codec: H.264
  • Encoder: CinefiloCool
  • Mediainfo: Clic para Mostrar Datos Ver
  • The.Hunger.Games.The.Ballad.Of.Songbirds.And.Snakes.2023.Bluray.1080p.x264.Latino-CC@CMHDD.mkv
    Format                      : Matroska
    Format version              : Version 4
    File size                   : 5.01 GiB
    Duration                    : 2 h 37 min
    Overall bit rate            : 4 564 kb/s
    Movie name                  : The Hunger Games. The Ballad Of Songbirds And Snakes (2023) CinemaniaHDD.Net
    Encoded date                : UTC 2024-02-06 04:11:57
    Writing application         : mkvmerge v56.1.0 ('My Friend') 64-bit
    Writing library             : libebml v1.4.2 + libmatroska v1.6.4
    Cover                       : Yes
    Attachments                 : cover.jpg / CINEMANIAHD.png

    Video
    ID                          : 1
    Format                      : AVC
    Format/Info                 : Advanced Video Codec
    Format profile              : High@L4.1
    Format settings             : CABAC / 5 Ref Frames
    Format settings, CABAC      : Yes
    Format settings, Reference  : 5 frames
    Codec ID                    : V_MPEG4/ISO/AVC
    Duration                    : 2 h 37 min
    Bit rate                    : 3 500 kb/s
    Width                       : 1 920 pixels
    Height                      : 804 pixels
    Display aspect ratio        : 2.40:1
    Frame rate mode             : Constant
    Frame rate                  : 23.976 (24000/1001) FPS
    Color space                 : YUV
    Chroma subsampling          : 4:2:0
    Bit depth                   : 8 bits
    Scan type                   : Progressive
    Bits/(Pixel*Frame)          : 0.095
    Stream size                 : 3.81 GiB (76%)
    Title                       : HD1080p [CinemaniaHDD]
    Writing library             : x264 core 163 r3059 b684ebe0
    Encoding settings           : cabac=1 / ref=5 / deblock=1:-1:-1 / analyse=0x3:0x133 / me=umh / subme=9 / psy=1 / psy_rd=1.00:0.15 / mixed_ref=1 / me_range=16 / chroma_me=1 / trellis=2 / 8x8dct=1 / cqm=0 / deadzone=21,11 / fast_pskip=1 / chroma_qp_offset=-3 / threads=24 / lookahead_threads=2 / sliced_threads=0 / nr=0 / decimate=1 / interlaced=0 / bluray_compat=0 / constrained_intra=0 / bframes=3 / b_pyramid=2 / b_adapt=2 / b_bias=0 / direct=3 / weightb=1 / open_gop=0 / weightp=2 / keyint=240 / keyint_min=24 / scenecut=40 / intra_refresh=0 / rc_lookahead=60 / rc=abr / mbtree=1 / bitrate=3500 / ratetol=1.0 / qcomp=0.60 / qpmin=0 / qpmax=69 / qpstep=4 / vbv_maxrate=62500 / vbv_bufsize=78125 / nal_hrd=none / filler=0 / ip_ratio=1.40 / aq=1:1.00
    Default                     : Yes
    Forced                      : Yes
    Color range                 : Limited
    Color primaries             : BT.709
    Transfer characteristics    : BT.709
    Matrix coefficients         : BT.709

    Audio #1
    ID                          : 2
    ID in the original source m : 4354 (0x1102)
    Format                      : AC-3
    Format/Info                 : Audio Coding 3
    Commercial name             : Dolby Digital
    Codec ID                    : A_AC3
    Duration                    : 2 h 37 min
    Bit rate mode               : Constant
    Bit rate                    : 640 kb/s
    Channel(s)                  : 6 channels
    Channel layout              : L R C LFE Ls Rs
    Sampling rate               : 48.0 kHz
    Frame rate                  : 31.250 FPS (1536 SPF)
    Compression mode            : Lossy
    Delay relative to video     : -5 ms
    Stream size                 : 719 MiB (14%)
    Title                       : Español Latino [CinemaniaHDD]
    Language                    : Spanish
    Service kind                : Complete Main
    Default                     : Yes
    Forced                      : Yes
    Original source medium      : Blu-ray

    Audio #2
    ID                          : 3
    Format                      : AC-3
    Format/Info                 : Audio Coding 3
    Commercial name             : Dolby Digital
    Codec ID                    : A_AC3
    Duration                    : 2 h 37 min
    Bit rate mode               : Constant
    Bit rate                    : 448 kb/s
    Channel(s)                  : 6 channels
    Channel layout              : L R C LFE Ls Rs
    Sampling rate               : 48.0 kHz
    Frame rate                  : 31.250 FPS (1536 SPF)
    Compression mode            : Lossy
    Delay relative to video     : -5 ms
    Stream size                 : 504 MiB (10%)
    Title                       : Ingles [CinemaniaHDD]
    Language                    : English
    Service kind                : Complete Main
    Default                     : No
    Forced                      : No

    Text #1
    ID                          : 4
    Format                      : UTF-8
    Codec ID                    : S_TEXT/UTF8
    Codec ID/Info               : UTF-8 Plain Text
    Duration                    : 2 h 17 min
    Bit rate                    : 3 b/s
    Count of elements           : 158
    Stream size                 : 3.93 KiB (0%)
    Title                       : Forzados-SRT [CinemaniaHDD]
    Language                    : Spanish
    Default                     : Yes
    Forced                      : Yes

    Text #2
    ID                          : 5
    Format                      : UTF-8
    Codec ID                    : S_TEXT/UTF8
    Codec ID/Info               : UTF-8 Plain Text
    Duration                    : 2 h 26 min
    Bit rate                    : 55 b/s
    Count of elements           : 2088
    Stream size                 : 59.4 KiB (0%)
    Title                       : Español-SRT [CinemaniaHDD]
    Language                    : Spanish
    Default                     : No
    Forced                      : No

    Menu
    00:00:00.000                : Chapter 01
    00:12:36.505                : Chapter 02
    00:24:22.586                : Chapter 03
    00:34:06.002                : Chapter 04
    00:46:53.936                : Chapter 05
    00:56:09.741                : Chapter 06
    01:08:28.437                : Chapter 07
    01:19:22.424                : Chapter 08
    01:26:41.112                : Chapter 09
    01:33:59.508                : Chapter 10
    01:40:45.706                : Chapter 11
    01:47:35.657                : Chapter 12
    01:54:55.680                : Chapter 13
    02:05:09.543                : Chapter 14
    02:13:03.392                : Chapter 15
    02:19:05.795                : Chapter 16

  • Peso: 5.01 GiB

Sinopsis

Descargar Los juegos del hambre: La balada de pájaros cantores y serpientes (2023) HD 1080p Latino-CMHDD. Ambientada en un Panem postapocalíptico, nos hace retroceder varias décadas antes del comienzo de las aventuras de Katniss Everdeen. El joven Coriolanus Snow será el mentor de Lucy Gray Baird, la niña seleccionada como tributo del empobrecido Distrito 12. La joven sorprenderá a todos al cantar en la ceremonia de inauguración de los Décimos Juegos del Hambre en los que Snow intentará aprovecharse de su talento y encanto para sobrevivir.

Ficha técnica

Video trailer de la película

Enlaces de descarga

Rip de Bluray

Descargar Los juegos del hambre: La balada de pájaros cantores y serpientes (2023) HD 1080p Latino-CMHDD




Aportes de DPeliculasHDmega la pass es:dpeliculashdmega.org Aportes de CinemaniaHD la pass es:cinemaniahdd.com Aportes recientes:cinemaniahdd.net
Guardado en : Acción , Ciencia ficción , Drama , HD 1080p

Películas relacionadas

  • Fear (2023) AMZN WEB-DL 1080p Latino

    Fear (2023) AMZN WEB-DL 1080p Latino

    2023
    Fear (2023) AMZN WEB-DL 1080p Latino

    1h 38m 2023

    Una escapada muy necesaria y un fin de semana de celebración se convierte en una pesadilla debido a...

    Director: Deon Taylor

    Género: Drama

    Actores: Whylip Lee

  • Chucky (2023) Temporada 3 WEB-DL 1080p Latino

    Chucky (2023) Temporada 3 WEB-DL 1080p Latino

    2021
    Chucky (2023) Temporada 3 WEB-DL 1080p Latino

    0h 42m 2021

    El infame Chucky se abre paso a cuchilladas hacia la televisión en una nueva y mortífera serie escrita...

    Director: Nick Antosca

    Género: Crimen

    Actores: Zackary Arthur

  • Good Burger 2 (2023) HD 1080p Latino

    Good Burger 2 (2023) HD 1080p Latino

    2023
    Good Burger 2 (2023) HD 1080p Latino

    1h 31m 2023

    Descargar Good Burger 2 (2023) HD 1080p Latino. Después de que su último invento falla, Ed le da la...

    Director: Ross Novie

    Género: Comedia

    Actores: Zoe Saldana

descargar Los juegos del hambre: La balada de pájaros cantores y serpientes (2023) HD 1080p Latino-CMHDD 1080p 1080p gratis, Los juegos del hambre: La balada de pájaros cantores y serpientes (2023) HD 1080p Latino-CMHDD 1080p mega 1 link, Los juegos del hambre: La balada de pájaros cantores y serpientes (2023) HD 1080p Latino-CMHDD 1080p pelicula completa, descargar Los juegos del hambre: La balada de pájaros cantores y serpientes (2023) HD 1080p Latino-CMHDD 1080p gratis en mega.

Los juegos del hambre: La balada de pájaros cantores y serpientes (2023) HD 1080p Latino-CMHDD pelicula full hd, Los juegos del hambre: La balada de pájaros cantores y serpientes (2023) HD 1080p Latino-CMHDD mega latino, Los juegos del hambre: La balada de pájaros cantores y serpientes (2023) HD 1080p Latino-CMHDD 4k latino, Los juegos del hambre: La balada de pájaros cantores y serpientes (2023) HD 1080p Latino-CMHDD pelicula completa, Los juegos del hambre: La balada de pájaros cantores y serpientes (2023) HD 1080p Latino-CMHDD descargar gratis, descargar Los juegos del hambre: La balada de pájaros cantores y serpientes (2023) HD 1080p Latino-CMHDD pelicula latino, Los juegos del hambre: La balada de pájaros cantores y serpientes (2023) HD 1080p Latino-CMHDD 1 link mega, Los juegos del hambre: La balada de pájaros cantores y serpientes (2023) HD 1080p Latino-CMHDD 1 link google drive, Los juegos del hambre: La balada de pájaros cantores y serpientes (2023) HD 1080p Latino-CMHDD hd 1080p latino.
Comentarios 0