×

¿Problemas para descargar con Mozilla, EDGE? Deshabilita la opción "Abrir vinculos en una pestaña nueva" tal como lo muestra ésta imagen.

The Hunger Games Mockingjay Part 2 (2015) REMUX 1080p Latino – CMHDD

248 vistas

Información de The Hunger Games Mockingjay Part 2 (2015) REMUX 1080p Latino – CMHDD

Datos de la película

  • Calidad: Full 1080p
  • Audio: Se especifica abajo de la Sinopsis
  • Subtitulos: Español Latino PGS
  • Resolución: 1920x1080p
  • Formato: MKV
  • Codec: H.264
  • Encoder: Dracarys
  • Mediainfo: Clic para Mostrar Datos Ver
  • Format                      : Matroska
    Format version              : Version 4
    File size                   : 25.4 GiB
    Duration                    : 2 h 16 min
    Overall bit rate mode       : Variable
    Overall bit rate            : 26.6 Mb/s
    Movie name                  : The Hunger Games Mockingjay Part 2 (2015) REMUX 1080p Latino - CMHDD
    Encoded date                : UTC 2021-01-30 20:59:42
    Writing application         : mkvmerge v51.0.0 ('I Wish') 64-bit
    Writing library             : libebml v1.4.0 + libmatroska v1.6.2

    Video
    ID                          : 1
    Format                      : AVC
    Format/Info                 : Advanced Video Codec
    Format profile              : High@L4.1
    Format settings             : CABAC / 4 Ref Frames
    Format settings, CABAC      : Yes
    Format settings, Reference  : 4 frames
    Codec ID                    : V_MPEG4/ISO/AVC
    Duration                    : 2 h 16 min
    Bit rate mode               : Variable
    Bit rate                    : 20.9 Mb/s
    Maximum bit rate            : 36.5 Mb/s
    Width                       : 1 920 pixels
    Height                      : 1 080 pixels
    Display aspect ratio        : 16:9
    Frame rate mode             : Constant
    Frame rate                  : 23.976 (24000/1001) FPS
    Color space                 : YUV
    Chroma subsampling          : 4:2:0
    Bit depth                   : 8 bits
    Scan type                   : Progressive
    Bits/(Pixel*Frame)          : 0.421
    Stream size                 : 20.0 GiB (79%)
    Default                     : Yes
    Forced                      : No

    Audio #1
    ID                          : 2
    Format                      : AC-3
    Format/Info                 : Audio Coding 3
    Commercial name             : Dolby Digital
    Codec ID                    : A_AC3
    Duration                    : 2 h 16 min
    Bit rate mode               : Constant
    Bit rate                    : 640 kb/s
    Channel(s)                  : 6 channels
    Channel layout              : L R C LFE Ls Rs
    Sampling rate               : 48.0 kHz
    Frame rate                  : 31.250 FPS (1536 SPF)
    Compression mode            : Lossy
    Stream size                 : 627 MiB (2%)
    Language                    : Spanish
    Service kind                : Complete Main
    Default                     : Yes
    Forced                      : No

    Audio #2
    ID                          : 3
    Format                      : MLP FBA 16-ch
    Format/Info                 : Meridian Lossless Packing FBA with 16-channel presentation
    Commercial name             : Dolby TrueHD with Dolby Atmos
    Codec ID                    : A_TRUEHD
    Duration                    : 2 h 16 min
    Bit rate mode               : Variable
    Bit rate                    : 4 257 kb/s
    Maximum bit rate            : 9 570 kb/s
    Channel(s)                  : 8 channels
    Channel layout              : L R C LFE Ls Rs Lb Rb
    Sampling rate               : 48.0 kHz
    Frame rate                  : 1 200.000 FPS (40 SPF)
    Compression mode            : Lossless
    Stream size                 : 4.07 GiB (16%)
    Language                    : English
    Default                     : No
    Forced                      : No
    Number of dynamic objects   : 15
    Bed channel count           : 1 channel
    Bed channel configuration   : LFE

    Audio #3
    ID                          : 4
    Format                      : AC-3
    Format/Info                 : Audio Coding 3
    Commercial name             : Dolby Digital
    Codec ID                    : A_AC3
    Duration                    : 2 h 16 min
    Bit rate mode               : Constant
    Bit rate                    : 640 kb/s
    Channel(s)                  : 6 channels
    Channel layout              : L R C LFE Ls Rs
    Sampling rate               : 48.0 kHz
    Frame rate                  : 31.250 FPS (1536 SPF)
    Compression mode            : Lossy
    Stream size                 : 627 MiB (2%)
    Language                    : English
    Service kind                : Complete Main
    Default                     : No
    Forced                      : No

    Text
    ID                          : 5
    Format                      : PGS
    Muxing mode                 : zlib
    Codec ID                    : S_HDMV/PGS
    Codec ID/Info               : Picture based subtitle format used on BDs/HD-DVDs
    Duration                    : 2 h 16 min
    Bit rate                    : 26.7 kb/s
    Count of elements           : 2479
    Stream size                 : 25.9 MiB (0%)
    Language                    : Spanish
    Default                     : No
    Forced                      : No

  • Peso: 25.4 GiB

Sinopsis

«Los juegos del hambre: Sinsajo. Parte 2» nos trae la impactante conclusión de la franquicia, en la que Katniss Everdeen (Jennifer Lawrence) se da cuenta de que ya no sólo está en juego su supervivencia, sino también el futuro. Con Panem sumida en una guerra a gran escala, Katniss tendrá que plantar cara al presidente Snow (Donald Sutherland) en el enfrentamiento final. Katniss, acompañada por un grupo de sus mejores amigos, que incluye a Gale (Liam Hemsworth), Finnick (Sam Claflin) y Peeta (Josh Hutcherson), emprende una misión con la unidad del Distrito 13, en la que arriesgan sus vidas para liberar a los ciudadanos de Panem y orquestan un intento de asesinato del presidente Snow, cada vez más obsesionado con destruirla. Las trampas mortales, los enemigos y las decisiones morales que aguardan a Katniss la pondrán en mayores aprietos que ninguna arena de Los Juegos del Hambre.

 

Latino: AC3 5.1 – Ingles: TrueHD 7.1

Ficha técnica

Video trailer de la película

Enlaces de descarga

Rip de Bluray

Descargar The Hunger Games Mockingjay Part 2 (2015) REMUX 1080p Latino – CMHDD


Aportes de DPeliculasHDmega la pass es:dpeliculashdmega.org Aportes de CinemaniaHD la pass es:cinemaniahdd.com
Guardado en : Acción , Aventura , Ciencia ficción

Películas relacionadas

  • El Lobo Y El Leon (2021) HD 1080p Latino

    El Lobo Y El Leon (2021) HD 1080p Latino

    2021
    El Lobo Y El Leon (2021) HD 1080p Latino

    1h 39m 2021

    Descargar El Lobo Y El Leon (2021) HD 1080p Latino. A la muerte de su abuelo, Alma, un joven pianista...

    Director: Gilles de Maistre

    Género: Aventura

    Actores: Victor Cornfoot

  • El Lobo Y El Leon (2021) PLACEBO Full HD 1080p Latino

    El Lobo Y El Leon (2021) PLACEBO Full HD 1080p Latino

    2021
    El Lobo Y El Leon (2021) PLACEBO Full HD 1080p Latino

    1h 39m 2021

    Descargar El Lobo Y El Leon (2021) PLACEBO Full HD 1080p Latino. A la muerte de su abuelo, Alma, un joven...

    Director: Gilles de Maistre

    Género: Aventura

    Actores: Victor Cornfoot

  • El Lobo Y El Leon (2021) REMUX 1080p Latino

    El Lobo Y El Leon (2021) REMUX 1080p Latino

    2021
    El Lobo Y El Leon (2021) REMUX 1080p Latino

    1h 39m 2021

    Descargar El Lobo Y El Leon (2021) REMUX 1080p Latino. A la muerte de su abuelo, Alma, un joven pianista...

    Director: Gilles de Maistre

    Género: Aventura

    Actores: Victor Cornfoot

  • La Mujer Rey (2022) WEB-DL 1080p Latino

    La Mujer Rey (2022) WEB-DL 1080p Latino

    2022
    La Mujer Rey (2022) WEB-DL 1080p Latino

    2h 15m 2022

    Descargar La Mujer Rey (2022) WEB-DL 1080p Latino. Una epopeya histórica inspirada en los hechos reales...

    Director: Gina Prince-Bythewood

    Género: Acción

    Actores: Wanda Banda

  • Black Adam (2022) WEB-DL 4K UHD HDR Latino

    Black Adam (2022) WEB-DL 4K UHD HDR Latino

    2022
    Black Adam (2022) WEB-DL 4K UHD HDR Latino

    2h 4m 2022

    Descargar Black Adam (2022) WEB-DL 4K UHD HDR Latino. Casi 5.000 años después de haber sido dotado...

    Director: Jaume Collet-Serra

    Género: 4K HDR

    Actores: Yssa Mei Panganiban

descargar The Hunger Games Mockingjay Part 2 (2015) REMUX 1080p Latino – CMHDD Full 1080p 1080p gratis, The Hunger Games Mockingjay Part 2 (2015) REMUX 1080p Latino – CMHDD Full 1080p mega 1 link, The Hunger Games Mockingjay Part 2 (2015) REMUX 1080p Latino – CMHDD Full 1080p pelicula completa, descargar The Hunger Games Mockingjay Part 2 (2015) REMUX 1080p Latino – CMHDD Full 1080p gratis en mega.

The Hunger Games Mockingjay Part 2 (2015) REMUX 1080p Latino – CMHDD pelicula full hd, The Hunger Games Mockingjay Part 2 (2015) REMUX 1080p Latino – CMHDD mega latino, The Hunger Games Mockingjay Part 2 (2015) REMUX 1080p Latino – CMHDD 4k latino, The Hunger Games Mockingjay Part 2 (2015) REMUX 1080p Latino – CMHDD pelicula completa, The Hunger Games Mockingjay Part 2 (2015) REMUX 1080p Latino – CMHDD descargar gratis, descargar The Hunger Games Mockingjay Part 2 (2015) REMUX 1080p Latino – CMHDD pelicula latino, The Hunger Games Mockingjay Part 2 (2015) REMUX 1080p Latino – CMHDD 1 link mega, The Hunger Games Mockingjay Part 2 (2015) REMUX 1080p Latino – CMHDD 1 link google drive, The Hunger Games Mockingjay Part 2 (2015) REMUX 1080p Latino – CMHDD hd 1080p latino.