×

¿Problemas para descargar con Mozilla, EDGE? Deshabilita la opción "Abrir vinculos en una pestaña nueva" tal como lo muestra ésta imagen.

The Hunger Games Mockingjay Part 2 (2015) Full HD 1080p Latino – CMHDD

506 vistas

Información de The Hunger Games Mockingjay Part 2 (2015) Full HD 1080p Latino – CMHDD

Datos de la película

  • Calidad: Full 1080p
  • Audio: Se especifica abajo de la Sinopsis
  • Subtitulos: Español Latino PGS
  • Resolución: 1920x1080p
  • Formato: MKV
  • Codec: H.264
  • Encoder: Dracarys
  • Mediainfo: Clic para Mostrar Datos Ver
  • Format                      : Matroska
    Format version              : Version 4
    File size                   : 6.99 GiB
    Duration                    : 2 h 16 min
    Overall bit rate mode       : Variable
    Overall bit rate            : 7 310 kb/s
    Movie name                  : The Hunger Games Mockingjay Part 2 (2015) Full HD 1080p Latino - CMHDD
    Encoded date                : UTC 2021-02-02 01:21:35
    Writing application         : mkvmerge v51.0.0 ('I Wish') 64-bit
    Writing library             : libebml v1.4.0 + libmatroska v1.6.2

    Video
    ID                          : 1
    Format                      : AVC
    Format/Info                 : Advanced Video Codec
    Format profile              : High@L4.1
    Format settings             : CABAC / 4 Ref Frames
    Format settings, CABAC      : Yes
    Format settings, Reference  : 4 frames
    Codec ID                    : V_MPEG4/ISO/AVC
    Duration                    : 2 h 16 min
    Bit rate                    : 2 334 kb/s
    Width                       : 1 920 pixels
    Height                      : 1 080 pixels
    Display aspect ratio        : 16:9
    Frame rate mode             : Constant
    Frame rate                  : 23.976 (24000/1001) FPS
    Color space                 : YUV
    Chroma subsampling          : 4:2:0
    Bit depth                   : 8 bits
    Scan type                   : Progressive
    Bits/(Pixel*Frame)          : 0.047
    Stream size                 : 2.23 GiB (32%)
    Writing library             : x264 core 157 r2935 545de2f
    Encoding settings           : cabac=1 / ref=4 / deblock=1:0:0 / analyse=0x3:0x133 / me=tesa / subme=11 / psy=1 / psy_rd=1.00:0.00 / mixed_ref=1 / me_range=24 / chroma_me=1 / trellis=2 / 8x8dct=1 / cqm=0 / deadzone=21,11 / fast_pskip=0 / chroma_qp_offset=-2 / threads=24 / lookahead_threads=6 / sliced_threads=0 / nr=0 / decimate=1 / interlaced=0 / bluray_compat=0 / constrained_intra=0 / bframes=16 / b_pyramid=2 / b_adapt=2 / b_bias=0 / direct=3 / weightb=1 / open_gop=0 / weightp=2 / keyint=240 / keyint_min=24 / scenecut=40 / intra_refresh=0 / rc_lookahead=60 / rc=crf / mbtree=1 / crf=20.0 / qcomp=0.60 / qpmin=0 / qpmax=69 / qpstep=4 / vbv_maxrate=62500 / vbv_bufsize=78125 / crf_max=0.0 / nal_hrd=none / filler=0 / ip_ratio=1.40 / aq=1:1.00
    Default                     : Yes
    Forced                      : No
    Color range                 : Limited
    Color primaries             : BT.709
    Transfer characteristics    : BT.709
    Matrix coefficients         : BT.709

    Audio #1
    ID                          : 2
    Format                      : AC-3
    Format/Info                 : Audio Coding 3
    Commercial name             : Dolby Digital
    Codec ID                    : A_AC3
    Duration                    : 2 h 16 min
    Bit rate mode               : Constant
    Bit rate                    : 640 kb/s
    Channel(s)                  : 6 channels
    Channel layout              : L R C LFE Ls Rs
    Sampling rate               : 48.0 kHz
    Frame rate                  : 31.250 FPS (1536 SPF)
    Compression mode            : Lossy
    Stream size                 : 627 MiB (9%)
    Language                    : Spanish
    Service kind                : Complete Main
    Default                     : Yes
    Forced                      : No

    Audio #2
    ID                          : 3
    Format                      : MLP FBA 16-ch
    Format/Info                 : Meridian Lossless Packing FBA with 16-channel presentation
    Commercial name             : Dolby TrueHD with Dolby Atmos
    Codec ID                    : A_TRUEHD
    Duration                    : 2 h 16 min
    Bit rate mode               : Variable
    Bit rate                    : 4 257 kb/s
    Maximum bit rate            : 9 570 kb/s
    Channel(s)                  : 8 channels
    Channel layout              : L R C LFE Ls Rs Lb Rb
    Sampling rate               : 48.0 kHz
    Frame rate                  : 1 200.000 FPS (40 SPF)
    Compression mode            : Lossless
    Stream size                 : 4.07 GiB (58%)
    Language                    : English
    Default                     : No
    Forced                      : No
    Number of dynamic objects   : 15
    Bed channel count           : 1 channel
    Bed channel configuration   : LFE

    Text
    ID                          : 4
    Format                      : PGS
    Muxing mode                 : zlib
    Codec ID                    : S_HDMV/PGS
    Codec ID/Info               : Picture based subtitle format used on BDs/HD-DVDs
    Duration                    : 2 h 16 min
    Bit rate                    : 26.7 kb/s
    Count of elements           : 2479
    Stream size                 : 25.9 MiB (0%)
    Language                    : Spanish
    Default                     : No
    Forced                      : No

  • Peso: 6.99 GiB

Sinopsis

«Los juegos del hambre: Sinsajo. Parte 2» nos trae la impactante conclusión de la franquicia, en la que Katniss Everdeen (Jennifer Lawrence) se da cuenta de que ya no sólo está en juego su supervivencia, sino también el futuro. Con Panem sumida en una guerra a gran escala, Katniss tendrá que plantar cara al presidente Snow (Donald Sutherland) en el enfrentamiento final. Katniss, acompañada por un grupo de sus mejores amigos, que incluye a Gale (Liam Hemsworth), Finnick (Sam Claflin) y Peeta (Josh Hutcherson), emprende una misión con la unidad del Distrito 13, en la que arriesgan sus vidas para liberar a los ciudadanos de Panem y orquestan un intento de asesinato del presidente Snow, cada vez más obsesionado con destruirla. Las trampas mortales, los enemigos y las decisiones morales que aguardan a Katniss la pondrán en mayores aprietos que ninguna arena de Los Juegos del Hambre.

 

Latino: AC3 5.1 – Ingles: TrueHD 7.1

Ficha técnica

Video trailer de la película

Enlaces de descarga

Rip de Bluray

Descargar The Hunger Games Mockingjay Part 2 (2015) Full HD 1080p Latino – CMHDD




Aportes de DPeliculasHDmega la pass es:dpeliculashdmega.org Aportes de CinemaniaHD la pass es:cinemaniahdd.com Aportes recientes:cinemaniahdd.net
Guardado en : Acción , Aventura , Ciencia ficción

Películas relacionadas

  • Combate clandestino (2024) AMZN WEB-DL 1080p Latino

    Combate clandestino (2024) AMZN WEB-DL 1080p Latino

    2024
    Combate clandestino (2024) AMZN WEB-DL 1080p Latino

    1h 30m 2024

    Descargar Combate clandestino (2024) AMZN WEB-DL 1080p Latino. Un ex soldado a la deriva se convierte...

    Director: Christian Sesma

    Género: Acción

    Actores: Tyler Wombles

  • ¡Patos! (2023) HD 1080p Latino

    ¡Patos! (2023) HD 1080p Latino

    2023
    ¡Patos! (2023) HD 1080p Latino

    1h 23m 2023

    Descargar ¡Patos! (2023) HD 1080p Latino. Después de que una familia de patos migratorios aterriza...

    Director: Guy-Laurent Homsy

    Género: Acción

    Actores: Zeno Robinson

  • ¡Patos! (2023) PLACEBO Full HD 1080p Latino

    ¡Patos! (2023) PLACEBO Full HD 1080p Latino

    2023
    ¡Patos! (2023) PLACEBO Full HD 1080p Latino

    1h 23m 2023

    Descargar ¡Patos! (2023) PLACEBO Full HD 1080p Latino. Después de que una familia de patos migratorios...

    Director: Guy-Laurent Homsy

    Género: Acción

    Actores: Zeno Robinson

  • ¡Patos! (2023) REMUX 1080p Latino

    ¡Patos! (2023) REMUX 1080p Latino

    2023
    ¡Patos! (2023) REMUX 1080p Latino

    1h 23m 2023

    Descargar ¡Patos! (2023) REMUX 1080p Latino. Después de que una familia de patos migratorios aterriza...

    Director: Guy-Laurent Homsy

    Género: Acción

    Actores: Zeno Robinson

descargar The Hunger Games Mockingjay Part 2 (2015) Full HD 1080p Latino – CMHDD Full 1080p 1080p gratis, The Hunger Games Mockingjay Part 2 (2015) Full HD 1080p Latino – CMHDD Full 1080p mega 1 link, The Hunger Games Mockingjay Part 2 (2015) Full HD 1080p Latino – CMHDD Full 1080p pelicula completa, descargar The Hunger Games Mockingjay Part 2 (2015) Full HD 1080p Latino – CMHDD Full 1080p gratis en mega.

The Hunger Games Mockingjay Part 2 (2015) Full HD 1080p Latino – CMHDD pelicula full hd, The Hunger Games Mockingjay Part 2 (2015) Full HD 1080p Latino – CMHDD mega latino, The Hunger Games Mockingjay Part 2 (2015) Full HD 1080p Latino – CMHDD 4k latino, The Hunger Games Mockingjay Part 2 (2015) Full HD 1080p Latino – CMHDD pelicula completa, The Hunger Games Mockingjay Part 2 (2015) Full HD 1080p Latino – CMHDD descargar gratis, descargar The Hunger Games Mockingjay Part 2 (2015) Full HD 1080p Latino – CMHDD pelicula latino, The Hunger Games Mockingjay Part 2 (2015) Full HD 1080p Latino – CMHDD 1 link mega, The Hunger Games Mockingjay Part 2 (2015) Full HD 1080p Latino – CMHDD 1 link google drive, The Hunger Games Mockingjay Part 2 (2015) Full HD 1080p Latino – CMHDD hd 1080p latino.
Comentarios 1