×

¿Problemas para descargar con Mozilla, EDGE? Deshabilita la opción "Abrir vinculos en una pestaña nueva" tal como lo muestra ésta imagen.

The Hunger Games Catching Fire (2013) [IMAX] REMUX 1080p Latino – CMHDD

252 vistas

Información de The Hunger Games Catching Fire (2013) [IMAX] REMUX 1080p Latino – CMHDD

Datos de la película

  • Calidad: Full 1080p
  • Audio: Se especifica abajo de la Sinopsis
  • Subtitulos: Español Latino PGS
  • Resolución: 1920x1080p
  • Formato: MKV
  • Codec: H.264
  • Encoder: Dracarys
  • Mediainfo: Clic para Mostrar Datos Ver
  • Format                      : Matroska
    Format version              : Version 4
    File size                   : 27.3 GiB
    Duration                    : 2 h 26 min
    Overall bit rate mode       : Variable
    Overall bit rate            : 26.7 Mb/s
    Movie name                  : The Hunger Games Catching Fire (2013) [IMAX] REMUX 1080p Latino - CMHDD
    Encoded date                : UTC 2021-01-30 20:37:42
    Writing application         : mkvmerge v51.0.0 ('I Wish') 64-bit
    Writing library             : libebml v1.4.0 + libmatroska v1.6.2

    Video
    ID                          : 1
    Format                      : AVC
    Format/Info                 : Advanced Video Codec
    Format profile              : High@L4.1
    Format settings             : CABAC / 4 Ref Frames
    Format settings, CABAC      : Yes
    Format settings, Reference  : 4 frames
    Codec ID                    : V_MPEG4/ISO/AVC
    Duration                    : 2 h 26 min
    Bit rate mode               : Variable
    Bit rate                    : 20.4 Mb/s
    Maximum bit rate            : 37.0 Mb/s
    Width                       : 1 920 pixels
    Height                      : 1 080 pixels
    Display aspect ratio        : 16:9
    Frame rate mode             : Constant
    Frame rate                  : 23.976 (24000/1001) FPS
    Color space                 : YUV
    Chroma subsampling          : 4:2:0
    Bit depth                   : 8 bits
    Scan type                   : Progressive
    Bits/(Pixel*Frame)          : 0.410
    Stream size                 : 20.8 GiB (76%)
    Default                     : Yes
    Forced                      : No

    Audio #1
    ID                          : 2
    Format                      : AC-3
    Format/Info                 : Audio Coding 3
    Commercial name             : Dolby Digital
    Codec ID                    : A_AC3
    Duration                    : 2 h 26 min
    Bit rate mode               : Constant
    Bit rate                    : 640 kb/s
    Channel(s)                  : 6 channels
    Channel layout              : L R C LFE Ls Rs
    Sampling rate               : 48.0 kHz
    Frame rate                  : 31.250 FPS (1536 SPF)
    Compression mode            : Lossy
    Stream size                 : 669 MiB (2%)
    Language                    : Spanish
    Service kind                : Complete Main
    Default                     : Yes
    Forced                      : No

    Audio #2
    ID                          : 3
    Format                      : MLP FBA 16-ch
    Format/Info                 : Meridian Lossless Packing FBA with 16-channel presentation
    Commercial name             : Dolby TrueHD with Dolby Atmos
    Codec ID                    : A_TRUEHD
    Duration                    : 2 h 26 min
    Bit rate mode               : Variable
    Bit rate                    : 4 978 kb/s
    Maximum bit rate            : 8 391 kb/s
    Channel(s)                  : 8 channels
    Channel layout              : L R C LFE Ls Rs Lb Rb
    Sampling rate               : 48.0 kHz
    Frame rate                  : 1 200.000 FPS (40 SPF)
    Compression mode            : Lossless
    Delay relative to video     : 850 ms
    Stream size                 : 5.09 GiB (19%)
    Language                    : English
    Default                     : No
    Forced                      : No
    Number of dynamic objects   : 11
    Bed channel count           : 1 channel
    Bed channel configuration   : LFE

    Audio #3
    ID                          : 4
    Format                      : AC-3
    Format/Info                 : Audio Coding 3
    Commercial name             : Dolby Digital
    Codec ID                    : A_AC3
    Duration                    : 2 h 26 min
    Bit rate mode               : Constant
    Bit rate                    : 640 kb/s
    Channel(s)                  : 6 channels
    Channel layout              : L R C LFE Ls Rs
    Sampling rate               : 48.0 kHz
    Frame rate                  : 31.250 FPS (1536 SPF)
    Compression mode            : Lossy
    Delay relative to video     : 850 ms
    Stream size                 : 670 MiB (2%)
    Language                    : English
    Service kind                : Complete Main
    Default                     : No
    Forced                      : No

    Text
    ID                          : 5
    Format                      : PGS
    Muxing mode                 : zlib
    Codec ID                    : S_HDMV/PGS
    Codec ID/Info               : Picture based subtitle format used on BDs/HD-DVDs
    Duration                    : 2 h 13 min
    Bit rate                    : 29.1 kb/s
    Count of elements           : 2990
    Stream size                 : 27.8 MiB (0%)
    Language                    : Spanish
    Default                     : No
    Forced                      : No

  • Peso: 27.3 GiB

Sinopsis

Katniss Everdeen vuelve a casa sana y salva después de ganar los 74º Juegos del Hambre anuales junto a su compañero Peeta Mellark. Participar significa dejar atrás familia y amigos y hacer ambos el Tour de la Victoria por los diferentes distritos. A lo largo del camino, Katniss se da cuenta de que se está gestando una rebelión, pero en el Capitolio todo sigue bajo control: el Presidente Snow organiza los 75º Juegos del Hambre, El Vasallaje, una competición especial con una inesperada novedad que cambiará Panem para siempre.

 

Latino: AC3 5.1 – Ingles: TrueHD 7.1

Ficha técnica

Video trailer de la película

Enlaces de descarga

Rip de Bluray

Descargar The Hunger Games Catching Fire (2013) [IMAX] REMUX 1080p Latino – CMHDD


Aportes de DPeliculasHDmega la pass es:dpeliculashdmega.org Aportes de CinemaniaHD la pass es:cinemaniahdd.com
Guardado en : Acción , Aventura , Ciencia ficción

Películas relacionadas

descargar The Hunger Games Catching Fire (2013) [IMAX] REMUX 1080p Latino – CMHDD Full 1080p 1080p gratis, The Hunger Games Catching Fire (2013) [IMAX] REMUX 1080p Latino – CMHDD Full 1080p mega 1 link, The Hunger Games Catching Fire (2013) [IMAX] REMUX 1080p Latino – CMHDD Full 1080p pelicula completa, descargar The Hunger Games Catching Fire (2013) [IMAX] REMUX 1080p Latino – CMHDD Full 1080p gratis en mega.

The Hunger Games Catching Fire (2013) [IMAX] REMUX 1080p Latino – CMHDD pelicula full hd, The Hunger Games Catching Fire (2013) [IMAX] REMUX 1080p Latino – CMHDD mega latino, The Hunger Games Catching Fire (2013) [IMAX] REMUX 1080p Latino – CMHDD 4k latino, The Hunger Games Catching Fire (2013) [IMAX] REMUX 1080p Latino – CMHDD pelicula completa, The Hunger Games Catching Fire (2013) [IMAX] REMUX 1080p Latino – CMHDD descargar gratis, descargar The Hunger Games Catching Fire (2013) [IMAX] REMUX 1080p Latino – CMHDD pelicula latino, The Hunger Games Catching Fire (2013) [IMAX] REMUX 1080p Latino – CMHDD 1 link mega, The Hunger Games Catching Fire (2013) [IMAX] REMUX 1080p Latino – CMHDD 1 link google drive, The Hunger Games Catching Fire (2013) [IMAX] REMUX 1080p Latino – CMHDD hd 1080p latino.