×

¿Problemas para descargar con Mozilla, EDGE? Deshabilita la opción "Abrir vinculos en una pestaña nueva" tal como lo muestra ésta imagen.

The Hundred Code (2015) Primera Temporada WEB-DL 1080p Latino

345 vistas

Información de The Hundred Code (2015) Primera Temporada WEB-DL 1080p Latino

Datos de la película

  • Calidad: 1080p
  • Audio: Español Latino AC3 2.0 WEB-DL - Ingles AC3 2.0 WEB-DL
  • Subtitulos: Español Latino SRT
  • Resolución: 1920x1080
  • Formato: MKV
  • Codec: H.264
  • Encoder: cinemaniahdd
  • Mediainfo: Clic para Mostrar Datos Ver
  • The Hundred Code T01E01 WEB-DL 1080p Latino [CNMNHDD].mkv
    Format                      : Matroska
    Format version              : Version 4
    File size                   : 1.42 GiB
    Duration                    : 43 min 12 s
    Overall bit rate            : 4 715 kb/s
    Movie name                  : Codigo 100 S01E01 [1080p]
    Encoded date                : UTC 2022-02-01 00:12:28
    Writing application         : mkvmerge v59.0.0 ('Shining Star') 64-bit
    Writing library             : libebml v1.4.2 + libmatroska v1.6.4

    Video
    ID                          : 1
    Format                      : AVC
    Format/Info                 : Advanced Video Codec
    Format profile              : High@L4
    Format settings             : CABAC / 4 Ref Frames
    Format settings, CABAC      : Yes
    Format settings, Reference  : 4 frames
    Format settings, GOP        : M=4, N=48
    Codec ID                    : V_MPEG4/ISO/AVC
    Duration                    : 43 min 12 s
    Bit rate                    : 4 500 kb/s
    Width                       : 1 920 pixels
    Height                      : 1 080 pixels
    Display aspect ratio        : 16:9
    Frame rate mode             : Constant
    Frame rate                  : 23.976 (24000/1001) FPS
    Color space                 : YUV
    Chroma subsampling          : 4:2:0
    Bit depth                   : 8 bits
    Scan type                   : Progressive
    Bits/(Pixel*Frame)          : 0.091
    Stream size                 : 1.35 GiB (95%)
    Title                       : CinemaniaHDD
    Writing library             : x264 core 161
    Encoding settings           : cabac=1 / ref=4 / deblock=1:0:0 / analyse=0x3:0x113 / me=hex / subme=8 / psy=1 / psy_rd=1.00:0.00 / mixed_ref=1 / me_range=16 / chroma_me=1 / trellis=2 / 8x8dct=1 / cqm=0 / deadzone=21,11 / fast_pskip=1 / chroma_qp_offset=-2 / threads=6 / lookahead_threads=1 / sliced_threads=0 / nr=0 / decimate=1 / interlaced=0 / bluray_compat=0 / stitchable=1 / constrained_intra=0 / bframes=3 / b_pyramid=2 / b_adapt=1 / b_bias=0 / direct=3 / weightb=1 / open_gop=0 / weightp=2 / keyint=48 / keyint_min=4 / scenecut=0 / intra_refresh=0 / rc_lookahead=48 / rc=2pass / mbtree=1 / bitrate=4500 / ratetol=1.0 / qcomp=0.60 / qpmin=0 / qpmax=69 / qpstep=4 / cplxblur=20.0 / qblur=0.5 / vbv_maxrate=5400 / vbv_bufsize=4500 / nal_hrd=none / filler=0 / ip_ratio=1.40 / aq=1:1.00
    Default                     : Yes
    Forced                      : No

    Audio #1
    ID                          : 2
    Format                      : AAC LC
    Format/Info                 : Advanced Audio Codec Low Complexity
    Codec ID                    : A_AAC-2
    Duration                    : 43 min 12 s
    Bit rate                    : 125 kb/s
    Channel(s)                  : 2 channels
    Channel layout              : L R
    Sampling rate               : 48.0 kHz
    Frame rate                  : 46.875 FPS (1024 SPF)
    Compression mode            : Lossy
    Stream size                 : 38.5 MiB (3%)
    Title                       : Español latino [CinemaniaHDD]
    Language                    : Spanish
    Default                     : Yes
    Forced                      : No

    Audio #2
    ID                          : 3
    Format                      : AAC LC
    Format/Info                 : Advanced Audio Codec Low Complexity
    Codec ID                    : A_AAC-2
    Duration                    : 43 min 12 s
    Bit rate                    : 125 kb/s
    Channel(s)                  : 2 channels
    Channel layout              : L R
    Sampling rate               : 48.0 kHz
    Frame rate                  : 46.875 FPS (1024 SPF)
    Compression mode            : Lossy
    Stream size                 : 38.5 MiB (3%)
    Title                       : Inglés [CinemaniaHDD]
    Language                    : English
    Default                     : No
    Forced                      : No

    Text
    ID                          : 4
    Format                      : UTF-8
    Codec ID                    : S_TEXT/UTF8
    Codec ID/Info               : UTF-8 Plain Text
    Duration                    : 40 min 28 s
    Bit rate                    : 51 b/s
    Count of elements           : 473
    Stream size                 : 15.3 KiB (0%)
    Title                       : Español latino [CinemaniaHDD]
    Language                    : Spanish
    Default                     : No
    Forced                      : No

     

  • Peso: 1.42 GiB Aprox ---- 18 GiB in 12 Chapters.

Sinopsis

New York. Stockholm. Una serie de mujeres jovenes, rubias y con ojos azules han sido encontradas muertas en medio de campos de flores. El detective Tommy Conley, en comisión de servicios de la policia de New York, se desplaza a Estocolmo para observar y aconsejar a la policia nórdica. En Suecia es emparejado con Mikael Eklund, un estricto policia sueco que detesta la cultura americana. Ambos no se soportan, pero se ven rapidamente forzados a trabajar jutos para resolver el numero cada vez mayor de asesinatos

Ficha técnica

Video trailer de la película

Enlaces de descarga

Rip de Bluray

Descargar The Hundred Code (2015) Primera Temporada WEB-DL 1080p Latino




Aportes de DPeliculasHDmega la pass es:dpeliculashdmega.org Aportes de CinemaniaHD la pass es:cinemaniahdd.com
Guardado en : Crimen , Series

Películas relacionadas

descargar The Hundred Code (2015) Primera Temporada WEB-DL 1080p Latino 1080p 1080p gratis, The Hundred Code (2015) Primera Temporada WEB-DL 1080p Latino 1080p mega 1 link, The Hundred Code (2015) Primera Temporada WEB-DL 1080p Latino 1080p serie completa, descargar The Hundred Code (2015) Primera Temporada WEB-DL 1080p Latino 1080p gratis en mega.

The Hundred Code (2015) Primera Temporada WEB-DL 1080p Latino pelicula full hd, The Hundred Code (2015) Primera Temporada WEB-DL 1080p Latino mega latino, The Hundred Code (2015) Primera Temporada WEB-DL 1080p Latino 4k latino, The Hundred Code (2015) Primera Temporada WEB-DL 1080p Latino pelicula completa, The Hundred Code (2015) Primera Temporada WEB-DL 1080p Latino descargar gratis, descargar The Hundred Code (2015) Primera Temporada WEB-DL 1080p Latino pelicula latino, The Hundred Code (2015) Primera Temporada WEB-DL 1080p Latino 1 link mega, The Hundred Code (2015) Primera Temporada WEB-DL 1080p Latino 1 link google drive, The Hundred Code (2015) Primera Temporada WEB-DL 1080p Latino hd 1080p latino.
Comentarios 0