×

¿Problemas para descargar con Mozilla, EDGE? Deshabilita la opción "Abrir vinculos en una pestaña nueva" tal como lo muestra ésta imagen.

The Horror of Dolores Roach (2023) Primera Temporada AMZN WEB-DL 1080p Latino

171 vistas

Información de The Horror of Dolores Roach (2023) Primera Temporada AMZN WEB-DL 1080p Latino

Datos de la película

  • Calidad: 1080p
  • Audio: Español Latino AC3 5.1 WEB-DL - Ingles AC3 5.1 WEB-DL
  • Subtitulos: Español Latino SRT- FORZADOS SRT
  • Resolución: 1920x1080
  • Formato: MKV
  • Codec: H.264
  • Encoder: cinemaniahdd
  • Mediainfo: Clic para Mostrar Datos Ver
  • The Horror of Dolores Roach T01E01 AMZN WEB-DL 1080p Latino [CNMNHDD].mkv
    Format                      : Matroska
    Format version              : Version 4
    File size                   : 1.94 GiB
    Duration                    : 28 min 4 s
    Overall bit rate            : 9 867 kb/s
    Movie name                  : The Horror of Dolores Roach S01E01 - They Called Me Magic Hands [1080p] - CinemaniaHDD.Net
    Encoded date                : UTC 2023-07-07 00:33:29
    Writing application         : mkvmerge v56.1.0 ('My Friend') 64-bit
    Writing library             : libebml v1.4.2 + libmatroska v1.6.4

    Video
    ID                          : 1
    Format                      : AVC
    Format/Info                 : Advanced Video Codec
    Format profile              : High@L4
    Format settings             : CABAC / 4 Ref Frames
    Format settings, CABAC      : Yes
    Format settings, Reference  : 4 frames
    Codec ID                    : V_MPEG4/ISO/AVC
    Duration                    : 28 min 4 s
    Bit rate mode               : Constant
    Bit rate                    : 7 944 kb/s
    Nominal bit rate            : 10 000 kb/s
    Width                       : 1 920 pixels
    Height                      : 960 pixels
    Display aspect ratio        : 2.000
    Frame rate mode             : Constant
    Frame rate                  : 23.976 (24000/1001) FPS
    Color space                 : YUV
    Chroma subsampling          : 4:2:0
    Bit depth                   : 8 bits
    Scan type                   : Progressive
    Bits/(Pixel*Frame)          : 0.180
    Stream size                 : 1.56 GiB (81%)
    Title                       : CinemaniaHDD
    Default                     : Yes
    Forced                      : No
    Color range                 : Limited
    Color primaries             : BT.709
    Transfer characteristics    : BT.709
    Matrix coefficients         : BT.709

    Audio #1
    ID                          : 2
    Format                      : AC-3
    Format/Info                 : Audio Coding 3
    Commercial name             : Dolby Digital
    Codec ID                    : A_AC3
    Duration                    : 28 min 4 s
    Bit rate mode               : Constant
    Bit rate                    : 640 kb/s
    Channel(s)                  : 6 channels
    Channel layout              : L R C LFE Ls Rs
    Sampling rate               : 48.0 kHz
    Frame rate                  : 31.250 FPS (1536 SPF)
    Compression mode            : Lossy
    Stream size                 : 129 MiB (6%)
    Title                       : Español Latino [CinemaniaHDD]
    Language                    : Spanish
    Service kind                : Complete Main
    Default                     : Yes
    Forced                      : No

    Audio #2
    ID                          : 3
    Format                      : E-AC-3
    Format/Info                 : Enhanced AC-3
    Commercial name             : Dolby Digital Plus
    Codec ID                    : A_EAC3
    Duration                    : 28 min 4 s
    Bit rate mode               : Constant
    Bit rate                    : 640 kb/s
    Channel(s)                  : 6 channels
    Channel layout              : L R C LFE Ls Rs
    Sampling rate               : 48.0 kHz
    Frame rate                  : 31.250 FPS (1536 SPF)
    Compression mode            : Lossy
    Stream size                 : 129 MiB (6%)
    Title                       : Español latino / E-AC3 [CinemaniaHDD]
    Language                    : Spanish
    Service kind                : Complete Main
    Default                     : No
    Forced                      : No

    Audio #3
    ID                          : 4
    Format                      : E-AC-3
    Format/Info                 : Enhanced AC-3
    Commercial name             : Dolby Digital Plus
    Codec ID                    : A_EAC3
    Duration                    : 28 min 4 s
    Bit rate mode               : Constant
    Bit rate                    : 640 kb/s
    Channel(s)                  : 6 channels
    Channel layout              : L R C LFE Ls Rs
    Sampling rate               : 48.0 kHz
    Frame rate                  : 31.250 FPS (1536 SPF)
    Compression mode            : Lossy
    Stream size                 : 129 MiB (6%)
    Title                       : Inglés [CinemaniaHDD]
    Language                    : English
    Service kind                : Complete Main
    Default                     : No
    Forced                      : No

    Text #1
    ID                          : 5
    Format                      : UTF-8
    Codec ID                    : S_TEXT/UTF8
    Codec ID/Info               : UTF-8 Plain Text
    Duration                    : 8 min 12 s
    Bit rate                    : 4 b/s
    Count of elements           : 7
    Stream size                 : 247 Bytes (0%)
    Title                       : Forzados [CinemaniaHDD]
    Language                    : Spanish
    Default                     : Yes
    Forced                      : Yes

    Text #2
    ID                          : 6
    Format                      : UTF-8
    Codec ID                    : S_TEXT/UTF8
    Codec ID/Info               : UTF-8 Plain Text
    Duration                    : 26 min 49 s
    Bit rate                    : 64 b/s
    Count of elements           : 363
    Stream size                 : 12.7 KiB (0%)
    Title                       : Español Latino [CinemaniaHDD]
    Language                    : Spanish
    Default                     : No
    Forced                      : No

    Text #3
    ID                          : 7
    Format                      : UTF-8
    Codec ID                    : S_TEXT/UTF8
    Codec ID/Info               : UTF-8 Plain Text
    Duration                    : 26 min 36 s
    Bit rate                    : 90 b/s
    Count of elements           : 578
    Stream size                 : 17.6 KiB (0%)
    Title                       : Inglés [CinemaniaHDD]
    Language                    : English
    Default                     : No
    Forced                      : No

    Menu
    00:00:00.000                : 1. Prime Video
    00:00:06.000                : 2. Title Sequence
    00:00:14.000                : Scene 3
    00:00:20.000                : Scene 4
    00:00:43.000                : Scene 5
    00:01:26.000                : Scene 6
    00:02:22.000                : Scene 7
    00:03:51.000                : Scene 8
    00:05:43.000                : Scene 9
    00:06:42.000                : Scene 10
    00:07:34.000                : Scene 11
    00:08:38.000                : Scene 12
    00:10:22.000                : Scene 13
    00:12:09.000                : Scene 14
    00:13:19.000                : Scene 15
    00:14:20.000                : Scene 16
    00:15:47.000                : Scene 17
    00:16:40.000                : Scene 18
    00:19:15.000                : Scene 19
    00:24:11.000                : Scene 20
    00:25:01.000                : Scene 21
    00:26:03.000                : 22. End Credits

     

  • Peso: 1.94 GiB Aprox ---- 17 GiB in 8 Chapters.

Sinopsis

Tras una injusta condena de 16 años en prisión, Dolores Roach (Justina Machado) regresa a un gentrificado Washington Heights donde se reencuentra con su viejo amigo drogadicto, Luis, quien la deja vivir y trabajar como masajista en el sótano de su tienda de empanadas. Y cuando todo parece ir bien, Dolores «manos mágicas» se ve obligada a llegar a extremos espeluznantes para sobrevivir.

Ficha técnica

Video trailer de la película

Enlaces de descarga

Rip de Bluray

Descargar The Horror of Dolores Roach (2023) Primera Temporada AMZN WEB-DL 1080p Latino




Aportes de DPeliculasHDmega la pass es:dpeliculashdmega.org Aportes de CinemaniaHD la pass es:cinemaniahdd.com Aportes recientes:cinemaniahdd.net
Guardado en : Comedia , Drama , Series

Películas relacionadas

descargar The Horror of Dolores Roach (2023) Primera Temporada AMZN WEB-DL 1080p Latino 1080p 1080p gratis, The Horror of Dolores Roach (2023) Primera Temporada AMZN WEB-DL 1080p Latino 1080p mega 1 link, The Horror of Dolores Roach (2023) Primera Temporada AMZN WEB-DL 1080p Latino 1080p serie completa, descargar The Horror of Dolores Roach (2023) Primera Temporada AMZN WEB-DL 1080p Latino 1080p gratis en mega.

The Horror of Dolores Roach (2023) Primera Temporada AMZN WEB-DL 1080p Latino pelicula full hd, The Horror of Dolores Roach (2023) Primera Temporada AMZN WEB-DL 1080p Latino mega latino, The Horror of Dolores Roach (2023) Primera Temporada AMZN WEB-DL 1080p Latino 4k latino, The Horror of Dolores Roach (2023) Primera Temporada AMZN WEB-DL 1080p Latino pelicula completa, The Horror of Dolores Roach (2023) Primera Temporada AMZN WEB-DL 1080p Latino descargar gratis, descargar The Horror of Dolores Roach (2023) Primera Temporada AMZN WEB-DL 1080p Latino pelicula latino, The Horror of Dolores Roach (2023) Primera Temporada AMZN WEB-DL 1080p Latino 1 link mega, The Horror of Dolores Roach (2023) Primera Temporada AMZN WEB-DL 1080p Latino 1 link google drive, The Horror of Dolores Roach (2023) Primera Temporada AMZN WEB-DL 1080p Latino hd 1080p latino.
Comentarios 0