×

¿Problemas para descargar con Mozilla, EDGE? Deshabilita la opción "Abrir vinculos en una pestaña nueva" tal como lo muestra ésta imagen.

The Honourable Woman (2014) [Primera Temporada] BBC WEB-DL 1080p Latino

190 vistas

Información de The Honourable Woman (2014) [Primera Temporada] BBC WEB-DL 1080p Latino

Datos de la película

  • Calidad: WEBDL
  • Audio: Español Latino AC3 2.0 - Ingles AC3 2.0
  • Subtitulos: Español Latino SRT - Ingles SRT
  • Resolución: 1920x1080
  • Formato: MKV
  • Codec: H.264
  • Encoder: cinemaniahdd
  • Mediainfo: Clic para Mostrar Datos Ver
  • The Honorable Woman T01E01 BBC WEB-DL 1080p Latino [CNMNHDD].mkv
    Format                      : Matroska
    Format version              : Version 4
    File size                   : 3.27 GiB
    Duration                    : 52 min 6 s
    Overall bit rate mode       : Variable
    Overall bit rate            : 8 993 kb/s
    Movie name                  : The Honorable Woman T01E01 - CinemaniaHDD.Net
    Encoded date                : UTC 2021-05-10 03:22:16
    Writing application         : mkvmerge v56.1.0 ('My Friend') 64-bit
    Writing library             : libebml v1.4.2 + libmatroska v1.6.4

    Video
    ID                          : 1
    Format                      : AVC
    Format/Info                 : Advanced Video Codec
    Format profile              : High@L4
    Format settings             : CABAC / 4 Ref Frames
    Format settings, CABAC      : Yes
    Format settings, Reference  : 4 frames
    Codec ID                    : V_MPEG4/ISO/AVC
    Duration                    : 52 min 6 s
    Bit rate mode               : Variable
    Bit rate                    : 8 250 kb/s
    Width                       : 1 920 pixels
    Height                      : 1 080 pixels
    Display aspect ratio        : 16:9
    Frame rate mode             : Constant
    Frame rate                  : 29.970 (30000/1001) FPS
    Color space                 : YUV
    Chroma subsampling          : 4:2:0
    Bit depth                   : 8 bits
    Scan type                   : Progressive
    Bits/(Pixel*Frame)          : 0.133
    Stream size                 : 2.99 GiB (91%)
    Title                       : CinemaniaHDD
    Language                    : Spanish
    Default                     : Yes
    Forced                      : No
    Color range                 : Limited
    Color primaries             : BT.709
    Transfer characteristics    : BT.709
    Matrix coefficients         : BT.709

    Audio #1
    ID                          : 2
    Format                      : AC-3
    Format/Info                 : Audio Coding 3
    Commercial name             : Dolby Digital
    Codec ID                    : A_AC3
    Duration                    : 52 min 6 s
    Bit rate mode               : Constant
    Bit rate                    : 256 kb/s
    Channel(s)                  : 2 channels
    Channel layout              : L R
    Sampling rate               : 48.0 kHz
    Frame rate                  : 31.250 FPS (1536 SPF)
    Compression mode            : Lossy
    Stream size                 : 143 MiB (4%)
    Title                       : Español latino [CinemaniaHDD]
    Language                    : Spanish
    Service kind                : Complete Main
    Default                     : Yes
    Forced                      : Yes

    Audio #2
    ID                          : 3
    Format                      : AC-3
    Format/Info                 : Audio Coding 3
    Commercial name             : Dolby Digital
    Codec ID                    : A_AC3
    Duration                    : 52 min 6 s
    Bit rate mode               : Constant
    Bit rate                    : 256 kb/s
    Channel(s)                  : 2 channels
    Channel layout              : L R
    Sampling rate               : 48.0 kHz
    Frame rate                  : 31.250 FPS (1536 SPF)
    Compression mode            : Lossy
    Stream size                 : 143 MiB (4%)
    Title                       : Inglés [CinemaniaHDD]
    Language                    : English
    Service kind                : Complete Main
    Default                     : No
    Forced                      : No

    Text #1
    ID                          : 4
    Format                      : UTF-8
    Codec ID                    : S_TEXT/UTF8
    Codec ID/Info               : UTF-8 Plain Text
    Duration                    : 50 min 58 s
    Bit rate                    : 49 b/s
    Count of elements           : 543
    Stream size                 : 18.4 KiB (0%)
    Title                       : Español latino [CinemaniaHDD]
    Language                    : Spanish
    Default                     : No
    Forced                      : No

    Text #2
    ID                          : 5
    Format                      : UTF-8
    Codec ID                    : S_TEXT/UTF8
    Codec ID/Info               : UTF-8 Plain Text
    Duration                    : 51 min 6 s
    Bit rate                    : 49 b/s
    Count of elements           : 618
    Stream size                 : 18.5 KiB (0%)
    Title                       : Inglés [CinemaniaHDD]
    Language                    : English
    Default                     : No
    Forced                      : No

     

  • Peso: 3.27 GiB Aprox ---- 29.1 GiB in 9 Chapters.

Sinopsis

Mini-Serie de TV (2014). 9 episodios. Sigue a Nessa Stein, una prestigiosa empresaria de una compañía armamentística que dedica su tiempo a promover procesos de paz en Oriente Medio. Sin embargo, la Casa Blanca y el Servicio Secreto de Inteligencia la sitúan en el punto de mira y la ven obligada a involucrarse en una compleja trama política de escala internacional.

Ficha técnica

  • Titulo original: The Honourable Woman
  • Fecha de lanzamiento: 03-07-2014 (GB, US)
  • Director: Hugo Blick
  • Género: Drama, Series

Video trailer de la película

Enlaces de descarga

Rip de Bluray

Descargar The Honourable Woman (2014) [Primera Temporada] BBC WEB-DL 1080p Latino




Aportes de DPeliculasHDmega la pass es:dpeliculashdmega.org Aportes de CinemaniaHD la pass es:cinemaniahdd.com
Guardado en : Drama , Series

Películas relacionadas

descargar The Honourable Woman (2014) [Primera Temporada] BBC WEB-DL 1080p Latino WEBDL 1080p gratis, The Honourable Woman (2014) [Primera Temporada] BBC WEB-DL 1080p Latino WEBDL mega 1 link, The Honourable Woman (2014) [Primera Temporada] BBC WEB-DL 1080p Latino WEBDL serie completa, descargar The Honourable Woman (2014) [Primera Temporada] BBC WEB-DL 1080p Latino WEBDL gratis en mega.

The Honourable Woman (2014) [Primera Temporada] BBC WEB-DL 1080p Latino pelicula full hd, The Honourable Woman (2014) [Primera Temporada] BBC WEB-DL 1080p Latino mega latino, The Honourable Woman (2014) [Primera Temporada] BBC WEB-DL 1080p Latino 4k latino, The Honourable Woman (2014) [Primera Temporada] BBC WEB-DL 1080p Latino pelicula completa, The Honourable Woman (2014) [Primera Temporada] BBC WEB-DL 1080p Latino descargar gratis, descargar The Honourable Woman (2014) [Primera Temporada] BBC WEB-DL 1080p Latino pelicula latino, The Honourable Woman (2014) [Primera Temporada] BBC WEB-DL 1080p Latino 1 link mega, The Honourable Woman (2014) [Primera Temporada] BBC WEB-DL 1080p Latino 1 link google drive, The Honourable Woman (2014) [Primera Temporada] BBC WEB-DL 1080p Latino hd 1080p latino.
Comentarios 0