×

¿Problemas para descargar con Mozilla, EDGE? Deshabilita la opción "Abrir vinculos en una pestaña nueva" tal como lo muestra ésta imagen.

El descanso (2006) REMUX 1080p Latino-CMHDD

74 vistas

Información de El descanso (2006) REMUX 1080p Latino-CMHDD

Datos de la película

  • Calidad: Full 1080p
  • Audio: Español Latino DTS 5.1 BLURAY - Ingles DTS-HD 5.1 BLURAY
  • Subtitulos: Español Latino PGS - Ingles PGS
  • Resolución: 1920x1080p
  • Formato: MKV
  • Codec: H.264
  • Encoder: CinefiloCool
  • Mediainfo: Clic para Mostrar Datos Ver
  • The.Holiday.2006.Bluray.REMUX.1080p.VC1.Latino-CC@CMHDD.mkv
    Format                      : Matroska
    Format version              : Version 4
    File size                   : 22.5 GiB
    Duration                    : 2 h 15 min
    Overall bit rate mode       : Variable
    Overall bit rate            : 23.8 Mb/s
    Movie name                  : The Holiday (2006) CinemaniaHDD.Net
    Encoded date                : UTC 2024-01-08 00:42:29
    Writing application         : mkvmerge v56.1.0 ('My Friend') 64-bit
    Writing library             : libebml v1.4.2 + libmatroska v1.6.4
    Cover                       : Yes
    Attachments                 : CINEMANIAHD.png / cover.jpg

    Video
    ID                          : 1
    ID in the original source m : 4113 (0x1011)
    Format                      : VC-1
    Format profile              : Advanced@L3
    Codec ID                    : V_MS/VFW/FOURCC / WVC1
    Codec ID/Hint               : Microsoft
    Duration                    : 2 h 15 min
    Bit rate                    : 19.6 Mb/s
    Width                       : 1 920 pixels
    Height                      : 1 080 pixels
    Display aspect ratio        : 16:9
    Frame rate mode             : Constant
    Frame rate                  : 23.976 (24000/1001) FPS
    Color space                 : YUV
    Chroma subsampling          : 4:2:0
    Bit depth                   : 8 bits
    Scan type                   : Progressive
    Compression mode            : Lossy
    Bits/(Pixel*Frame)          : 0.393
    Stream size                 : 18.5 GiB (82%)
    Title                       : REMUX HD1080p [CinemaniaHDD]
    Default                     : Yes
    Forced                      : Yes
    Original source medium      : Blu-ray

    Audio #1
    ID                          : 2
    ID in the original source m : 4359 (0x1107)
    Format                      : DTS
    Format/Info                 : Digital Theater Systems
    Codec ID                    : A_DTS
    Duration                    : 2 h 15 min
    Bit rate mode               : Constant
    Bit rate                    : 768 kb/s
    Channel(s)                  : 6 channels
    Channel layout              : C L R Ls Rs LFE
    Sampling rate               : 48.0 kHz
    Frame rate                  : 93.750 FPS (512 SPF)
    Bit depth                   : 24 bits
    Compression mode            : Lossy
    Stream size                 : 745 MiB (3%)
    Title                       : Español Latino [CinemaniaHDD]
    Language                    : Spanish
    Default                     : Yes
    Forced                      : Yes
    Original source medium      : Blu-ray

    Audio #2
    ID                          : 3
    ID in the original source m : 4353 (0x1101)
    Format                      : DTS XLL
    Format/Info                 : Digital Theater Systems
    Commercial name             : DTS-HD Master Audio
    Codec ID                    : A_DTS
    Duration                    : 2 h 15 min
    Bit rate mode               : Variable
    Bit rate                    : 3 409 kb/s
    Channel(s)                  : 6 channels
    Channel layout              : C L R Ls Rs LFE
    Sampling rate               : 48.0 kHz
    Frame rate                  : 93.750 FPS (512 SPF)
    Bit depth                   : 24 bits
    Compression mode            : Lossless
    Stream size                 : 3.23 GiB (14%)
    Title                       : Ingles [CinemaniaHDD]
    Language                    : English
    Default                     : No
    Forced                      : No
    Original source medium      : Blu-ray

    Text #1
    ID                          : 4
    ID in the original source m : 4627 (0x1213)
    Format                      : PGS
    Muxing mode                 : zlib
    Codec ID                    : S_HDMV/PGS
    Codec ID/Info               : Picture based subtitle format used on BDs/HD-DVDs
    Duration                    : 30 min 1 s
    Bit rate                    : 306 b/s
    Count of elements           : 10
    Stream size                 : 67.5 KiB (0%)
    Title                       : Forzados-PGS [CinemaniaHDD]
    Language                    : Spanish
    Default                     : No
    Forced                      : No
    Original source medium      : Blu-ray

    Text #2
    ID                          : 5
    ID in the original source m : 4615 (0x1207)
    Format                      : PGS
    Muxing mode                 : zlib
    Codec ID                    : S_HDMV/PGS
    Codec ID/Info               : Picture based subtitle format used on BDs/HD-DVDs
    Duration                    : 2 h 9 min
    Bit rate                    : 40.1 kb/s
    Count of elements           : 3184
    Stream size                 : 37.1 MiB (0%)
    Title                       : Español-PGS [CinemaniaHDD]
    Language                    : Spanish
    Default                     : No
    Forced                      : No
    Original source medium      : Blu-ray

    Text #3
    ID                          : 6
    ID in the original source m : 4609 (0x1201)
    Format                      : PGS
    Muxing mode                 : zlib
    Codec ID                    : S_HDMV/PGS
    Codec ID/Info               : Picture based subtitle format used on BDs/HD-DVDs
    Duration                    : 2 h 9 min
    Bit rate                    : 42.4 kb/s
    Count of elements           : 3373
    Stream size                 : 39.2 MiB (0%)
    Title                       : Ingles [CinemaniaHDD]
    Language                    : English
    Default                     : No
    Forced                      : No
    Original source medium      : Blu-ray

    Text #4
    ID                          : 7
    Format                      : UTF-8
    Codec ID                    : S_TEXT/UTF8
    Codec ID/Info               : UTF-8 Plain Text
    Duration                    : 1 h 14 min
    Bit rate                    : 0 b/s
    Count of elements           : 7
    Stream size                 : 120 Bytes (0%)
    Title                       : Forzados-SRT [CinemaniaHDD]
    Language                    : Spanish
    Default                     : Yes
    Forced                      : Yes

    Text #5
    ID                          : 8
    Format                      : UTF-8
    Codec ID                    : S_TEXT/UTF8
    Codec ID/Info               : UTF-8 Plain Text
    Duration                    : 2 h 14 min
    Bit rate                    : 52 b/s
    Count of elements           : 1674
    Stream size                 : 52.2 KiB (0%)
    Title                       : Español-SRT [CinemaniaHDD]
    Language                    : Spanish
    Default                     : No
    Forced                      : No

    Menu
    00:00:00.000                : Chapter 01
    00:05:44.344                : Chapter 02
    00:09:46.210                : Chapter 03
    00:10:53.402                : Chapter 04
    00:16:00.125                : Chapter 05
    00:18:25.938                : Chapter 06
    00:24:11.283                : Chapter 07
    00:28:27.080                : Chapter 08
    00:33:07.402                : Chapter 09
    00:38:45.781                : Chapter 10
    00:48:01.837                : Chapter 11
    00:52:26.685                : Chapter 12
    00:55:58.271                : Chapter 13
    01:00:03.725                : Chapter 14
    01:02:28.286                : Chapter 15
    01:08:59.677                : Chapter 16
    01:11:42.631                : Chapter 17
    01:15:51.004                : Chapter 18
    01:20:11.515                : Chapter 19
    01:22:13.094                : Chapter 20
    01:24:50.543                : Chapter 21
    01:28:10.743                : Chapter 22
    01:31:30.151                : Chapter 23
    01:33:54.629                : Chapter 24
    01:36:25.821                : Chapter 25
    01:41:07.936                : Chapter 26
    01:49:10.377                : Chapter 27
    02:02:41.812                : Chapter 28

  • Peso: 22.5 GiB

Sinopsis

Descargar El descanso (2006) REMUX 1080p Latino-CMHDD. Amanda Woods (Cameron Diaz), una chica americana que posee una próspera agencia de publicidad especializada en trailers de películas, vive en el sur de California y acaba de romper con su novio (Edward Burns). Por su parte, Iris Simpkins (Kate Winslet), redactora de la popular columna de bodas para el London Daily Telegraph, vive en una encantadora casa de campo en Inglaterra y sus relaciones con los hombres tampoco son fáciles. A través de internet llegan a un acuerdo para intercambiarse sus respectivas viviendas durante las Navidades.

Ficha técnica

Video trailer de la película

Enlaces de descarga

Rip de Bluray

Descargar El descanso (2006) REMUX 1080p Latino-CMHDD


Aportes de DPeliculasHDmega la pass es:dpeliculashdmega.org Aportes de CinemaniaHD la pass es:cinemaniahdd.com Aportes recientes:cinemaniahdd.net
Guardado en : Comedia , Remux , Romance

Películas relacionadas

  • iZombie (2016) Temporada 02 REMUX 1080p Latino

    iZombie (2016) Temporada 02 REMUX 1080p Latino

    2015
    iZombie (2016) Temporada 02 REMUX 1080p Latino

    0h 42m 2015

    Descargar iZombie (2016) Temporada 02 REMUX 1080p Latino. Gira en torno a una estudiante de medicina...

    Director: Rob Thomas

    Género: Crimen

    Actores: Rose McIver

  • iZombie (2015) Temporada 01 REMUX 1080p Latino

    iZombie (2015) Temporada 01 REMUX 1080p Latino

    2015
    iZombie (2015) Temporada 01 REMUX 1080p Latino

    0h 42m 2015

    Descargar iZombie (2015) Temporada 01 REMUX 1080p Latino. Gira en torno a una estudiante de medicina...

    Director: Rob Thomas

    Género: Crimen

    Actores: Rose McIver

  • Good Burger 2 (2023) HD 1080p Latino

    Good Burger 2 (2023) HD 1080p Latino

    2023
    Good Burger 2 (2023) HD 1080p Latino

    1h 31m 2023

    Descargar Good Burger 2 (2023) HD 1080p Latino. Después de que su último invento falla, Ed le da la...

    Director: Ross Novie

    Género: Comedia

    Actores: Zoe Saldana

  • Good Burger 2 (2023) PLACEBO Full HD 1080p Latino

    Good Burger 2 (2023) PLACEBO Full HD 1080p Latino

    2023
    Good Burger 2 (2023) PLACEBO Full HD 1080p Latino

    1h 31m 2023

    Descargar Good Burger 2 (2023) PLACEBO Full HD 1080p Latino. Después de que su último invento falla,...

    Director: Ross Novie

    Género: Comedia

    Actores: Zoe Saldana

  • Good Burger 2 (2023) REMUX 1080p Latino

    Good Burger 2 (2023) REMUX 1080p Latino

    2023
    Good Burger 2 (2023) REMUX 1080p Latino

    1h 31m 2023

    Descargar Good Burger 2 (2023) REMUX 1080p Latino. Después de que su último invento falla, Ed le da...

    Director: Ross Novie

    Género: Comedia

    Actores: Zoe Saldana

descargar El descanso (2006) REMUX 1080p Latino-CMHDD Full 1080p 1080p gratis, El descanso (2006) REMUX 1080p Latino-CMHDD Full 1080p mega 1 link, El descanso (2006) REMUX 1080p Latino-CMHDD Full 1080p pelicula completa, descargar El descanso (2006) REMUX 1080p Latino-CMHDD Full 1080p gratis en mega.

El descanso (2006) REMUX 1080p Latino-CMHDD pelicula full hd, El descanso (2006) REMUX 1080p Latino-CMHDD mega latino, El descanso (2006) REMUX 1080p Latino-CMHDD 4k latino, El descanso (2006) REMUX 1080p Latino-CMHDD pelicula completa, El descanso (2006) REMUX 1080p Latino-CMHDD descargar gratis, descargar El descanso (2006) REMUX 1080p Latino-CMHDD pelicula latino, El descanso (2006) REMUX 1080p Latino-CMHDD 1 link mega, El descanso (2006) REMUX 1080p Latino-CMHDD 1 link google drive, El descanso (2006) REMUX 1080p Latino-CMHDD hd 1080p latino.
Comentarios 0