×

¿Problemas para descargar con Mozilla, EDGE? Deshabilita la opción "Abrir vinculos en una pestaña nueva" tal como lo muestra ésta imagen.

The Hobbit The Desolation of Smaug (2013) [EXTENDED] REMUX 4K HDR Latino – CMHDD

459 vistas

Información de The Hobbit The Desolation of Smaug (2013) [EXTENDED] REMUX 4K HDR Latino – CMHDD

Datos de la película

  • Calidad: 4K HDR
  • Audio: Se especifica abajo de la Sinopsis
  • Subtitulos: Español Latino SRT
  • Resolución: 3840x2160p
  • Formato: MKV
  • Codec: H.264
  • Encoder: Dracarys
  • Mediainfo: Clic para Mostrar Datos Ver
  • Format                      : Matroska
    Format version              : Version 4
    File size                   : 78.1 GiB
    Duration                    : 3 h 6 min
    Overall bit rate mode       : Variable
    Overall bit rate            : 59.9 Mb/s
    Movie name                  : The Hobbit: The Desolation of Smaug (2013) [EXTENDED] REMUX 4K HDR Latino - CMHDD
    Encoded date                : UTC 2022-02-13 00:18:27
    Writing application         : mkvmerge v17.0.0 ('Be Ur Friend') 64-bit
    Writing library             : libebml v1.3.5 + libmatroska v1.4.8

    Video
    ID                          : 1
    Format                      : HEVC
    Format/Info                 : High Efficiency Video Coding
    Format profile              : Main 10@L5.1@High
    HDR format                  : SMPTE ST 2086, HDR10 compatible
    Codec ID                    : V_MPEGH/ISO/HEVC
    Duration                    : 3 h 6 min
    Bit rate                    : 55.7 Mb/s
    Width                       : 3 840 pixels
    Height                      : 2 160 pixels
    Display aspect ratio        : 16:9
    Frame rate mode             : Constant
    Frame rate                  : 23.976 (24000/1001) FPS
    Color space                 : YUV
    Chroma subsampling          : 4:2:0 (Type 2)
    Bit depth                   : 10 bits
    Bits/(Pixel*Frame)          : 0.280
    Stream size                 : 72.6 GiB (93%)
    Default                     : Yes
    Forced                      : No
    Color range                 : Limited
    Color primaries             : BT.2020
    Transfer characteristics    : PQ
    Matrix coefficients         : BT.2020 non-constant
    Mastering display color pri : Display P3
    Mastering display luminance : min: 0.0050 cd/m2, max: 4000 cd/m2
    Maximum Content Light Level : 1122 cd/m2
    Maximum Frame-Average Light : 216 cd/m2

    Audio #1
    ID                          : 2
    Format                      : MLP FBA 16-ch
    Format/Info                 : Meridian Lossless Packing FBA with 16-channel presentation
    Commercial name             : Dolby TrueHD with Dolby Atmos
    Codec ID                    : A_TRUEHD
    Duration                    : 3 h 6 min
    Bit rate mode               : Variable
    Bit rate                    : 3 200 kb/s
    Maximum bit rate            : 5 031 kb/s
    Channel(s)                  : 8 channels
    Channel layout              : L R C LFE Ls Rs Lb Rb
    Sampling rate               : 48.0 kHz
    Frame rate                  : 1 200.000 FPS (40 SPF)
    Compression mode            : Lossless
    Stream size                 : 4.17 GiB (5%)
    Language                    : English
    Default                     : No
    Forced                      : No
    Number of dynamic objects   : 11
    Bed channel count           : 1 channel
    Bed channel configuration   : LFE

    Audio #2
    ID                          : 3
    Format                      : AC-3
    Format/Info                 : Audio Coding 3
    Commercial name             : Dolby Digital
    Format settings             : Dolby Surround EX
    Codec ID                    : A_AC3
    Duration                    : 3 h 6 min
    Bit rate mode               : Constant
    Bit rate                    : 448 kb/s
    Channel(s)                  : 6 channels
    Channel layout              : L R C LFE Ls Rs
    Sampling rate               : 48.0 kHz
    Frame rate                  : 31.250 FPS (1536 SPF)
    Compression mode            : Lossy
    Stream size                 : 598 MiB (1%)
    Language                    : English
    Service kind                : Complete Main
    Default                     : No
    Forced                      : No

    Audio #3
    ID                          : 4
    Format                      : AC-3
    Format/Info                 : Audio Coding 3
    Commercial name             : Dolby Digital
    Codec ID                    : A_AC3
    Duration                    : 3 h 6 min
    Bit rate mode               : Constant
    Bit rate                    : 448 kb/s
    Channel(s)                  : 6 channels
    Channel layout              : L R C LFE Ls Rs
    Sampling rate               : 48.0 kHz
    Frame rate                  : 31.250 FPS (1536 SPF)
    Compression mode            : Lossy
    Stream size                 : 598 MiB (1%)
    Language                    : Spanish
    Service kind                : Complete Main
    Default                     : Yes
    Forced                      : No

    Text #1
    ID                          : 5
    Format                      : PGS
    Muxing mode                 : zlib
    Codec ID                    : S_HDMV/PGS
    Codec ID/Info               : Picture based subtitle format used on BDs/HD-DVDs
    Duration                    : 3 h 5 min
    Bit rate                    : 22.3 kb/s
    Count of elements           : 4244
    Stream size                 : 29.5 MiB (0%)
    Language                    : Spanish
    Default                     : No
    Forced                      : No

    Text #2
    ID                          : 6
    Format                      : UTF-8
    Codec ID                    : S_TEXT/UTF8
    Codec ID/Info               : UTF-8 Plain Text
    Duration                    : 2 h 41 min
    Bit rate                    : 1 b/s
    Count of elements           : 83
    Stream size                 : 1.96 KiB (0%)
    Language                    : Spanish
    Default                     : Yes
    Forced                      : No

    Menu
    00:00:00.000                : en:Capítulo 01
    00:07:33.035                : en:Capítulo 02
    00:11:59.927                : en:Capítulo 03
    00:12:59.069                : en:Capítulo 04
    00:15:54.995                : en:Capítulo 05
    00:20:56.546                : en:Capítulo 06
    00:23:15.060                : en:Capítulo 07
    00:25:52.300                : en:Capítulo 08
    00:29:58.880                : en:Capítulo 09
    00:38:13.666                : en:Capítulo 10
    00:46:43.467                : en:Capítulo 11
    00:49:45.941                : en:Capítulo 12
    00:53:19.154                : en:Capítulo 13
    00:55:09.848                : en:Capítulo 14
    00:58:07.484                : en:Capítulo 15
    01:08:41.951                : en:Capítulo 16
    01:12:21.962                : en:Capítulo 17
    01:15:45.332                : en:Capítulo 18
    01:19:09.786                : en:Capítulo 19
    01:22:46.461                : en:Capítulo 20
    01:25:09.312                : en:Capítulo 21
    01:28:07.365                : en:Capítulo 22
    01:31:15.178                : en:Capítulo 23
    01:36:02.381                : en:Capítulo 24
    01:37:35.516                : en:Capítulo 25
    01:40:35.029                : en:Capítulo 26
    01:45:16.143                : en:Capítulo 27
    01:48:44.100                : en:Capítulo 28
    01:50:31.374                : en:Capítulo 29
    01:52:36.166                : en:Capítulo 30
    01:53:08.072                : en:Capítulo 31
    01:59:15.982                : en:Capítulo 32
    02:07:11.457                : en:Capítulo 33
    02:07:38.734                : en:Capítulo 34
    02:09:22.296                : en:Capítulo 35
    02:12:48.210                : en:Capítulo 36
    02:22:00.470                : en:Capítulo 37
    02:22:43.054                : en:Capítulo 38
    02:23:17.547                : en:Capítulo 39
    02:24:56.020                : en:Capítulo 40
    02:26:44.712                : en:Capítulo 41
    02:29:18.449                : en:Capítulo 42
    02:33:12.600                : en:Capítulo 43
    02:34:57.246                : en:Capítulo 44
    02:36:12.780                : en:Capítulo 45
    02:37:45.581                : en:Capítulo 46
    02:39:08.455                : en:Capítulo 47
    02:41:39.564                : en:Capítulo 48
    02:44:05.627                : en:Capítulo 49
    02:51:16.307                : en:Capítulo 50
    02:56:05.179                : en:Capítulo 51

  • Peso: 78.1 GiB

Sinopsis

Tras sobrevivir al inicio de su inesperado viaje, la Compañía sigue hacia el este y se encuentra por el camino con Beorn, el cambiador de piel, y con un enjambre de Arañas gigantes en el peligroso monte Mirkwood. Tras evitar que los Elfos del Bosque los capturen, los Enanos prosiguen su viaje hacia Ciudad del Lago, y finalmente llegan a la Montaña Solitaria, donde tienen que enfrentarse al mayor de los peligros, una criatura más terrorífica que cualquier otra que pondrá a prueba no solo lo profundo de su valentía sino también los límites de su amistad y la sabiduría del viaje: el dragón Smaug.

 

Latino: AC3 5.1  –  Inglés: TrueHD 7.1

Ficha técnica

Video trailer de la película

Enlaces de descarga

Rip de Bluray

Descargar The Hobbit The Desolation of Smaug (2013) [EXTENDED] REMUX 4K HDR Latino – CMHDD


Aportes de DPeliculasHDmega la pass es:dpeliculashdmega.org Aportes de CinemaniaHD la pass es:cinemaniahdd.com
Guardado en : Acción , Aventura , Fantasía

Películas relacionadas

  • Wire Room (2022) HD 1080p Latino

    Wire Room (2022) HD 1080p Latino

    2022
    Wire Room (2022) HD 1080p Latino

    1h 37m 2022

    Descargar Wire Room (2022) HD 1080p Latino. Mientras está de servicio en la sala de cables, un agente...

    Director: Matt Eskandari

    Género: Acción

    Actores: Texas Battle

  • Wire Room (2022) PLACEBO Full HD 1080p Latino

    Wire Room (2022) PLACEBO Full HD 1080p Latino

    2022
    Wire Room (2022) PLACEBO Full HD 1080p Latino

    1h 37m 2022

    Descargar Wire Room (2022) PLACEBO Full HD 1080p Latino. Mientras está de servicio en la sala de cables,...

    Director: Matt Eskandari

    Género: Acción

    Actores: Texas Battle

  • Wire Room (2022) REMUX 1080p Latino

    Wire Room (2022) REMUX 1080p Latino

    2022
    Wire Room (2022) REMUX 1080p Latino

    1h 37m 2022

    Descargar Wire Room (2022) REMUX 1080p Latino. Mientras está de servicio en la sala de cables, un agente...

    Director: Matt Eskandari

    Género: Acción

    Actores: Texas Battle

  • El Cuartel Secreto (2022) WEB-DL 4K UHD HDR Latino

    El Cuartel Secreto (2022) WEB-DL 4K UHD HDR Latino

    2022
    El Cuartel Secreto (2022) WEB-DL 4K UHD HDR Latino

    1h 44m 2022

    Descargar El Cuartel Secreto (2022) WEB-DL 4K UHD HDR Latino. Mientras pasan el rato después de la escuela,...

    Director: Henry Joost

    Género: 4K HDR

    Actores: Zeb Slone

  • El Cuartel Secreto (2022) WEB-DL 1080p Latino

    El Cuartel Secreto (2022) WEB-DL 1080p Latino

    2022
    El Cuartel Secreto (2022) WEB-DL 1080p Latino

    1h 44m 2022

    Descargar El Cuartel Secreto (2022) WEB-DL 1080p Latino. Mientras pasan el rato después de la escuela,...

    Director: Henry Joost

    Género: Acción

    Actores: Zeb Slone

descargar The Hobbit The Desolation of Smaug (2013) [EXTENDED] REMUX 4K HDR Latino – CMHDD 4K HDR 1080p gratis, The Hobbit The Desolation of Smaug (2013) [EXTENDED] REMUX 4K HDR Latino – CMHDD 4K HDR mega 1 link, The Hobbit The Desolation of Smaug (2013) [EXTENDED] REMUX 4K HDR Latino – CMHDD 4K HDR pelicula completa, descargar The Hobbit The Desolation of Smaug (2013) [EXTENDED] REMUX 4K HDR Latino – CMHDD 4K HDR gratis en mega.

The Hobbit The Desolation of Smaug (2013) [EXTENDED] REMUX 4K HDR Latino – CMHDD pelicula full hd, The Hobbit The Desolation of Smaug (2013) [EXTENDED] REMUX 4K HDR Latino – CMHDD mega latino, The Hobbit The Desolation of Smaug (2013) [EXTENDED] REMUX 4K HDR Latino – CMHDD 4k latino, The Hobbit The Desolation of Smaug (2013) [EXTENDED] REMUX 4K HDR Latino – CMHDD pelicula completa, The Hobbit The Desolation of Smaug (2013) [EXTENDED] REMUX 4K HDR Latino – CMHDD descargar gratis, descargar The Hobbit The Desolation of Smaug (2013) [EXTENDED] REMUX 4K HDR Latino – CMHDD pelicula latino, The Hobbit The Desolation of Smaug (2013) [EXTENDED] REMUX 4K HDR Latino – CMHDD 1 link mega, The Hobbit The Desolation of Smaug (2013) [EXTENDED] REMUX 4K HDR Latino – CMHDD 1 link google drive, The Hobbit The Desolation of Smaug (2013) [EXTENDED] REMUX 4K HDR Latino – CMHDD hd 1080p latino.
Comentarios 0