×

¿Problemas para descargar con Mozilla, EDGE? Deshabilita la opción "Abrir vinculos en una pestaña nueva" tal como lo muestra ésta imagen.

The Hobbit An Unexpected Journey (2012) [EXTENDED] REMUX 4H HDR Latino – CMHDD

804 vistas

Información de The Hobbit An Unexpected Journey (2012) [EXTENDED] REMUX 4H HDR Latino – CMHDD

Datos de la película

  • Calidad: 4K HDR
  • Audio: Se especifica abajo de la Sinopsis
  • Subtitulos: Español Latino SRT
  • Resolución: 3840x2160p
  • Formato: MKV
  • Codec: H.264
  • Encoder: Dracarys
  • Mediainfo: Clic para Mostrar Datos Ver
  • Format                      : Matroska
    Format version              : Version 4
    File size                   : 68.1 GiB
    Duration                    : 3 h 2 min
    Overall bit rate mode       : Variable
    Overall bit rate            : 53.4 Mb/s
    Movie name                  : The Hobbit: An Unexpected Journey (2012) [EXTENDED] REMUX 4H HDR Latino - CMHDD
    Encoded date                : UTC 2022-02-10 01:57:31
    Writing application         : mkvmerge v17.0.0 ('Be Ur Friend') 64-bit
    Writing library             : libebml v1.3.5 + libmatroska v1.4.8

    Video
    ID                          : 1
    Format                      : HEVC
    Format/Info                 : High Efficiency Video Coding
    Format profile              : Main 10@L5.1@High
    HDR format                  : SMPTE ST 2086, HDR10 compatible
    Codec ID                    : V_MPEGH/ISO/HEVC
    Duration                    : 3 h 2 min
    Bit rate                    : 49.4 Mb/s
    Width                       : 3 840 pixels
    Height                      : 2 160 pixels
    Display aspect ratio        : 16:9
    Frame rate mode             : Constant
    Frame rate                  : 23.976 (24000/1001) FPS
    Color space                 : YUV
    Chroma subsampling          : 4:2:0 (Type 2)
    Bit depth                   : 10 bits
    Bits/(Pixel*Frame)          : 0.249
    Stream size                 : 63.0 GiB (93%)
    Default                     : Yes
    Forced                      : No
    Color range                 : Limited
    Color primaries             : BT.2020
    Transfer characteristics    : PQ
    Matrix coefficients         : BT.2020 non-constant
    Mastering display color pri : Display P3
    Mastering display luminance : min: 0.0050 cd/m2, max: 4000 cd/m2
    Maximum Content Light Level : 801 cd/m2
    Maximum Frame-Average Light : 188 cd/m2

    Audio #1
    ID                          : 2
    Format                      : MLP FBA 16-ch
    Format/Info                 : Meridian Lossless Packing FBA with 16-channel presentation
    Commercial name             : Dolby TrueHD with Dolby Atmos
    Codec ID                    : A_TRUEHD
    Duration                    : 3 h 2 min
    Bit rate mode               : Variable
    Bit rate                    : 3 403 kb/s
    Maximum bit rate            : 5 616 kb/s
    Channel(s)                  : 8 channels
    Channel layout              : L R C LFE Ls Rs Lb Rb
    Sampling rate               : 48.0 kHz
    Frame rate                  : 1 200.000 FPS (40 SPF)
    Compression mode            : Lossless
    Stream size                 : 4.34 GiB (6%)
    Language                    : English
    Default                     : No
    Forced                      : No
    Number of dynamic objects   : 11
    Bed channel count           : 1 channel
    Bed channel configuration   : LFE

    Audio #2
    ID                          : 3
    Format                      : AC-3
    Format/Info                 : Audio Coding 3
    Commercial name             : Dolby Digital
    Codec ID                    : A_AC3
    Duration                    : 3 h 2 min
    Bit rate mode               : Constant
    Bit rate                    : 448 kb/s
    Channel(s)                  : 6 channels
    Channel layout              : L R C LFE Ls Rs
    Sampling rate               : 48.0 kHz
    Frame rate                  : 31.250 FPS (1536 SPF)
    Compression mode            : Lossy
    Stream size                 : 585 MiB (1%)
    Language                    : Spanish
    Service kind                : Complete Main
    Default                     : Yes
    Forced                      : No

    Text #1
    ID                          : 4
    Format                      : PGS
    Muxing mode                 : zlib
    Codec ID                    : S_HDMV/PGS
    Codec ID/Info               : Picture based subtitle format used on BDs/HD-DVDs
    Duration                    : 3 h 1 min
    Bit rate                    : 24.4 kb/s
    Count of elements           : 4196
    Stream size                 : 31.7 MiB (0%)
    Language                    : Spanish
    Default                     : No
    Forced                      : No

    Text #2
    ID                          : 5
    Format                      : PGS
    Muxing mode                 : zlib
    Codec ID                    : S_HDMV/PGS
    Codec ID/Info               : Picture based subtitle format used on BDs/HD-DVDs
    Duration                    : 3 h 1 min
    Bit rate                    : 25.9 kb/s
    Count of elements           : 4406
    Stream size                 : 33.6 MiB (0%)
    Language                    : Spanish
    Default                     : No
    Forced                      : No

    Text #3
    ID                          : 6
    Format                      : UTF-8
    Codec ID                    : S_TEXT/UTF8
    Codec ID/Info               : UTF-8 Plain Text
    Duration                    : 3 h 1 min
    Bit rate                    : 5 b/s
    Count of elements           : 233
    Stream size                 : 7.71 KiB (0%)
    Title                       : Forzados
    Language                    : Spanish
    Default                     : Yes
    Forced                      : No

    Menu
    00:00:00.000                : en:Capítulo 01
    00:10:11.569                : en:Capítulo 02
    00:14:08.347                : en:Capítulo 03
    00:17:26.920                : en:Capítulo 04
    00:18:44.289                : en:Capítulo 05
    00:23:16.269                : en:Capítulo 06
    00:27:59.135                : en:Capítulo 07
    00:36:04.537                : en:Capítulo 08
    00:41:16.932                : en:Capítulo 09
    00:46:30.496                : en:Capítulo 10
    00:53:03.847                : en:Capítulo 11
    00:58:07.317                : en:Capítulo 12
    00:59:54.966                : en:Capítulo 13
    01:10:42.071                : en:Capítulo 14
    01:15:01.497                : en:Capítulo 15
    01:18:52.477                : en:Capítulo 16
    01:24:56.591                : en:Capítulo 17
    01:30:34.095                : en:Capítulo 18
    01:34:10.269                : en:Capítulo 19
    01:37:24.129                : en:Capítulo 20
    01:39:03.145                : en:Capítulo 21
    01:41:40.469                : en:Capítulo 22
    01:50:22.198                : en:Capítulo 23
    01:52:59.439                : en:Capítulo 24
    01:59:06.013                : en:Capítulo 25
    02:03:57.179                : en:Capítulo 26
    02:09:51.241                : en:Capítulo 27
    02:23:21.092                : en:Capítulo 28
    02:25:18.543                : en:Capítulo 29
    02:26:30.865                : en:Capítulo 30
    02:30:52.585                : en:Capítulo 31
    02:33:00.212                : en:Capítulo 32
    02:35:52.259                : en:Capítulo 33
    02:46:50.875                : en:Capítulo 34
    02:52:21.039                : en:Capítulo 35

  • Peso:

Sinopsis

Precuela de la trilogía «El Señor de los Anillos», obra de J.R.R. Tolkien. En compañía del mago Gandalf y de trece enanos, el hobbit Bilbo Bolsón emprende un viaje a través del país de los elfos y los bosques de los trolls, desde las mazmorras de los orcos hasta la Montaña Solitaria, donde el dragón Smaug esconde el tesoro de los Enanos. Finalmente, en las profundidades de la Tierra, encuentra el Anillo Único, hipnótico objeto que será posteriormente causa de tantas sangrientas batallas en la Tierra Media.

 

Latino: AC3 5.1  –  Inglés: TrueHD 7.1

Ficha técnica

Video trailer de la película

Enlaces de descarga

Rip de Bluray

Descargar The Hobbit An Unexpected Journey (2012) [EXTENDED] REMUX 4H HDR Latino – CMHDD


Aportes de DPeliculasHDmega la pass es:dpeliculashdmega.org Aportes de CinemaniaHD la pass es:cinemaniahdd.com
Guardado en : Acción , Aventura , Fantasía

Películas relacionadas

  • Mar de sangre (2022) WEB-DL 1080p Latino

    Mar de sangre (2022) WEB-DL 1080p Latino

    2022
    Mar de sangre (2022) WEB-DL 1080p Latino

    1h 27m 2022

    Descargar Mar de sangre (2022) WEB-DL 1080p Latino. Un grupo de amigos que disfrutan de un fin de semana...

    Director: James Nunn

    Género: Acción

    Actores: Thomas Michael Flynn

  • Noche sin paz (2022) PLACEBO Full HD 1080p Latino

    Noche sin paz (2022) PLACEBO Full HD 1080p Latino

    2022
    Noche sin paz (2022) PLACEBO Full HD 1080p Latino

    1h 41m 2022

    Descargar Noche sin paz (2022) PLACEBO Full HD 1080p Latino. Cuando un equipo de mercenarios irrumpe...

    Director: Tyshana Hobson

    Género: Acción

    Actores: Yoon Cha-Lee

  • Noche sin paz (2022) HD 1080p Latino

    Noche sin paz (2022) HD 1080p Latino

    2022
    Noche sin paz (2022) HD 1080p Latino

    1h 41m 2022

    Descargar Noche sin paz (2022) HD 1080p Latino. Cuando un equipo de mercenarios irrumpe en Nochebuena...

    Director: Tyshana Hobson

    Género: Acción

    Actores: Yoon Cha-Lee

  • Noche sin paz (2022) REMUX 1080p Latino

    Noche sin paz (2022) REMUX 1080p Latino

    2022
    Noche sin paz (2022) REMUX 1080p Latino

    1h 41m 2022

    Descargar Noche sin paz (2022) REMUX 1080p Latino. Cuando un equipo de mercenarios irrumpe en Nochebuena...

    Director: Tyshana Hobson

    Género: Acción

    Actores: Yoon Cha-Lee

  • Narvik (2022) NF WEB-DL 1080p Latino

    Narvik (2022) NF WEB-DL 1080p Latino

    2022
    Narvik (2022) NF WEB-DL 1080p Latino

    1h 48m 2022

    Descargar Narvik (2022) NF WEB-DL 1080p Latino. Abril de 1940. Los ojos del mundo están puestos en Narvik,...

    Director: Suzanne Svae-Johansen

    Género: Acción

    Actores: Torfinn Nag

descargar The Hobbit An Unexpected Journey (2012) [EXTENDED] REMUX 4H HDR Latino – CMHDD 4K HDR 1080p gratis, The Hobbit An Unexpected Journey (2012) [EXTENDED] REMUX 4H HDR Latino – CMHDD 4K HDR mega 1 link, The Hobbit An Unexpected Journey (2012) [EXTENDED] REMUX 4H HDR Latino – CMHDD 4K HDR pelicula completa, descargar The Hobbit An Unexpected Journey (2012) [EXTENDED] REMUX 4H HDR Latino – CMHDD 4K HDR gratis en mega.

The Hobbit An Unexpected Journey (2012) [EXTENDED] REMUX 4H HDR Latino – CMHDD pelicula full hd, The Hobbit An Unexpected Journey (2012) [EXTENDED] REMUX 4H HDR Latino – CMHDD mega latino, The Hobbit An Unexpected Journey (2012) [EXTENDED] REMUX 4H HDR Latino – CMHDD 4k latino, The Hobbit An Unexpected Journey (2012) [EXTENDED] REMUX 4H HDR Latino – CMHDD pelicula completa, The Hobbit An Unexpected Journey (2012) [EXTENDED] REMUX 4H HDR Latino – CMHDD descargar gratis, descargar The Hobbit An Unexpected Journey (2012) [EXTENDED] REMUX 4H HDR Latino – CMHDD pelicula latino, The Hobbit An Unexpected Journey (2012) [EXTENDED] REMUX 4H HDR Latino – CMHDD 1 link mega, The Hobbit An Unexpected Journey (2012) [EXTENDED] REMUX 4H HDR Latino – CMHDD 1 link google drive, The Hobbit An Unexpected Journey (2012) [EXTENDED] REMUX 4H HDR Latino – CMHDD hd 1080p latino.
Comentarios 0