×

¿Problemas para descargar con Mozilla, EDGE? Deshabilita la opción "Abrir vinculos en una pestaña nueva" tal como lo muestra ésta imagen.

The Hitchhiker’s Guide to the Galaxy (2005) REMUX 1080p Latino – CMHDD

512 vistas

Información de The Hitchhiker’s Guide to the Galaxy (2005) REMUX 1080p Latino – CMHDD

Datos de la película

  • Calidad: Full 1080p
  • Audio: Español Latino AC3 5.1 BLURAY - Ingles AC3 5.1 BLURAY
  • Subtitulos: Español Latino SRT- FORZADOS SRT
  • Resolución: 1920x1080p
  • Formato: MKV
  • Codec: H.264
  • Encoder: Dracarys
  • Mediainfo: Clic para Mostrar Datos Ver
  • Format                      : Matroska
    Format version              : Version 4
    File size                   : 25.0 GiB
    Duration                    : 1 h 48 min
    Overall bit rate mode       : Variable
    Overall bit rate            : 32.9 Mb/s
    Movie name                  : The Hitchhiker's Guide to the Galaxy (2005) REMUX 1080p Latino - CMHDD
    Encoded date                : UTC 2020-10-11 17:20:58
    Writing application         : mkvmerge v51.0.0 ('I Wish') 64-bit
    Writing library             : libebml v1.4.0 + libmatroska v1.6.2

    Video
    ID                          : 1
    Format                      : AVC
    Format/Info                 : Advanced Video Codec
    Format profile              : High@L4.1
    Format settings             : CABAC / 2 Ref Frames
    Format settings, CABAC      : Yes
    Format settings, Reference  : 2 frames
    Codec ID                    : V_MPEG4/ISO/AVC
    Duration                    : 1 h 48 min
    Bit rate mode               : Variable
    Bit rate                    : 27.0 Mb/s
    Width                       : 1 920 pixels
    Height                      : 1 080 pixels
    Display aspect ratio        : 16:9
    Frame rate mode             : Constant
    Frame rate                  : 23.976 (24000/1001) FPS
    Color space                 : YUV
    Chroma subsampling          : 4:2:0
    Bit depth                   : 8 bits
    Scan type                   : Progressive
    Bits/(Pixel*Frame)          : 0.542
    Stream size                 : 20.5 GiB (82%)
    Default                     : Yes
    Forced                      : No

    Audio #1
    ID                          : 2
    Format                      : AC-3
    Format/Info                 : Audio Coding 3
    Commercial name             : Dolby Digital
    Codec ID                    : A_AC3
    Duration                    : 1 h 48 min
    Bit rate mode               : Constant
    Bit rate                    : 640 kb/s
    Channel(s)                  : 6 channels
    Channel layout              : L R C LFE Ls Rs
    Sampling rate               : 48.0 kHz
    Frame rate                  : 31.250 FPS (1536 SPF)
    Compression mode            : Lossy
    Stream size                 : 498 MiB (2%)
    Language                    : Spanish
    Service kind                : Complete Main
    Default                     : Yes
    Forced                      : No

    Audio #2
    ID                          : 3
    Format                      : AC-3
    Format/Info                 : Audio Coding 3
    Commercial name             : Dolby Digital
    Codec ID                    : A_AC3
    Duration                    : 1 h 48 min
    Bit rate mode               : Constant
    Bit rate                    : 640 kb/s
    Channel(s)                  : 6 channels
    Channel layout              : L R C LFE Ls Rs
    Sampling rate               : 48.0 kHz
    Frame rate                  : 31.250 FPS (1536 SPF)
    Compression mode            : Lossy
    Stream size                 : 498 MiB (2%)
    Language                    : English
    Service kind                : Complete Main
    Default                     : No
    Forced                      : No

    Audio #3
    ID                          : 4
    Format                      : PCM
    Format settings             : Little / Signed
    Codec ID                    : A_PCM/INT/LIT
    Duration                    : 1 h 48 min
    Bit rate mode               : Constant
    Bit rate                    : 4 608 kb/s
    Channel(s)                  : 6 channels
    Sampling rate               : 48.0 kHz
    Frame rate                  : 200.000 FPS (240 SPF)
    Bit depth                   : 16 bits
    Stream size                 : 3.50 GiB (14%)
    Language                    : English
    Default                     : No
    Forced                      : No

    Text #1
    ID                          : 5
    Format                      : PGS
    Muxing mode                 : zlib
    Codec ID                    : S_HDMV/PGS
    Codec ID/Info               : Picture based subtitle format used on BDs/HD-DVDs
    Duration                    : 1 h 46 min
    Bit rate                    : 28.3 kb/s
    Count of elements           : 2808
    Stream size                 : 21.5 MiB (0%)
    Language                    : Spanish
    Default                     : No
    Forced                      : No

    Text #2
    ID                          : 6
    Format                      : PGS
    Muxing mode                 : zlib
    Codec ID                    : S_HDMV/PGS
    Codec ID/Info               : Picture based subtitle format used on BDs/HD-DVDs
    Duration                    : 1 h 40 min
    Bit rate                    : 307 b/s
    Count of elements           : 33
    Stream size                 : 226 KiB (0%)
    Language                    : Spanish
    Default                     : No
    Forced                      : No

    Text #3
    ID                          : 7
    Format                      : UTF-8
    Codec ID                    : S_TEXT/UTF8
    Codec ID/Info               : UTF-8 Plain Text
    Duration                    : 1 h 46 min
    Bit rate                    : 64 b/s
    Count of elements           : 1402
    Stream size                 : 50.5 KiB (0%)
    Language                    : Spanish
    Default                     : No
    Forced                      : No

    Text #4
    ID                          : 8
    Format                      : UTF-8
    Codec ID                    : S_TEXT/UTF8
    Codec ID/Info               : UTF-8 Plain Text
    Duration                    : 1 h 40 min
    Bit rate                    : 0 b/s
    Count of elements           : 16
    Stream size                 : 356 Bytes (0%)
    Language                    : Spanish
    Default                     : Yes
    Forced                      : No

  • Peso: 25.0 GiB

Sinopsis

Todo empieza con Arthur Dent, un chico normal y corriente que tiene un mal día. Su casa está a punto de derrumbarse, acaba de descubrir que su mejor amigo es un alienígena y para colmo, el planeta Tierra está a punto de ser demolido para construir una carretera de circunvalación hiperespacial. He aquí la única posibilidad de Arthur para sobrevivir: hacer autostop y subirse a bordo de una nave espacial con la ayuda de su mejor amigo Ford Prefect. En este viaje hacia lo desconocido, Arthur hace importantes descubrimientos, la mayoría de ellos inofensivos, sobre la verdadera naturaleza del universo. Por ejemplo, descubre que la toalla es el objeto más preciado del universo. Encuentra la respuesta exacta al sentido de la vida. Y se da cuenta que todo lo que siempre hemos querido saber acerca del universo (algo tan maravilloso que ni siquiera podemos imaginar) cabe en un fantástico libro electrónico: La guía del autoestopista galáctico.

Ficha técnica

Video trailer de la película

Enlaces de descarga

Rip de Bluray

Descargar The Hitchhiker’s Guide to the Galaxy (2005) REMUX 1080p Latino – CMHDD


Aportes de DPeliculasHDmega la pass es:dpeliculashdmega.org Aportes de CinemaniaHD la pass es:cinemaniahdd.com Aportes recientes:cinemaniahdd.net

Películas relacionadas

  • Players (2024) NF WEB-DL 1080p Latino

    Players (2024) NF WEB-DL 1080p Latino

    2024
    Players (2024) NF WEB-DL 1080p Latino

    1h 45m 2024

    Descargar Players (2024) NF WEB-DL 1080p Latino. Una periodista deportiva neoyorquina con un ingenioso...

    Director: Trish Sie

    Género: Comedia

    Actores: Veraalba Santa

  • ¡Patos! (2023) HD 1080p Latino

    ¡Patos! (2023) HD 1080p Latino

    2023
    ¡Patos! (2023) HD 1080p Latino

    1h 23m 2023

    Descargar ¡Patos! (2023) HD 1080p Latino. Después de que una familia de patos migratorios aterriza...

    Director: Guy-Laurent Homsy

    Género: Acción

    Actores: Zeno Robinson

  • ¡Patos! (2023) PLACEBO Full HD 1080p Latino

    ¡Patos! (2023) PLACEBO Full HD 1080p Latino

    2023
    ¡Patos! (2023) PLACEBO Full HD 1080p Latino

    1h 23m 2023

    Descargar ¡Patos! (2023) PLACEBO Full HD 1080p Latino. Después de que una familia de patos migratorios...

    Director: Guy-Laurent Homsy

    Género: Acción

    Actores: Zeno Robinson

descargar The Hitchhiker’s Guide to the Galaxy (2005) REMUX 1080p Latino – CMHDD Full 1080p 1080p gratis, The Hitchhiker’s Guide to the Galaxy (2005) REMUX 1080p Latino – CMHDD Full 1080p mega 1 link, The Hitchhiker’s Guide to the Galaxy (2005) REMUX 1080p Latino – CMHDD Full 1080p pelicula completa, descargar The Hitchhiker’s Guide to the Galaxy (2005) REMUX 1080p Latino – CMHDD Full 1080p gratis en mega.

The Hitchhiker’s Guide to the Galaxy (2005) REMUX 1080p Latino – CMHDD pelicula full hd, The Hitchhiker’s Guide to the Galaxy (2005) REMUX 1080p Latino – CMHDD mega latino, The Hitchhiker’s Guide to the Galaxy (2005) REMUX 1080p Latino – CMHDD 4k latino, The Hitchhiker’s Guide to the Galaxy (2005) REMUX 1080p Latino – CMHDD pelicula completa, The Hitchhiker’s Guide to the Galaxy (2005) REMUX 1080p Latino – CMHDD descargar gratis, descargar The Hitchhiker’s Guide to the Galaxy (2005) REMUX 1080p Latino – CMHDD pelicula latino, The Hitchhiker’s Guide to the Galaxy (2005) REMUX 1080p Latino – CMHDD 1 link mega, The Hitchhiker’s Guide to the Galaxy (2005) REMUX 1080p Latino – CMHDD 1 link google drive, The Hitchhiker’s Guide to the Galaxy (2005) REMUX 1080p Latino – CMHDD hd 1080p latino.
Comentarios 0