×

¿Problemas para descargar con Mozilla, EDGE? Deshabilita la opción "Abrir vinculos en una pestaña nueva" tal como lo muestra ésta imagen.

The Hills Have Eyes (2006) UNRATED REMUX 1080p Latino – CMHDD

149 vistas

Información de The Hills Have Eyes (2006) UNRATED REMUX 1080p Latino – CMHDD

Datos de la película

  • Calidad: Full 1080p
  • Audio: Español Latino AC3 5.1 BLURAY - Ingles DTS 5.1 BLURAY
  • Subtitulos: Español Latino SRT- FORZADOS SRT
  • Resolución: 19201080p
  • Formato: MKV
  • Codec: H.264
  • Encoder: Dracarys
  • Mediainfo: Clic para Mostrar Datos Ver
  • Format                      : Matroska
    Format version              : Version 4
    File size                   : 28.9 GiB
    Duration                    : 1 h 48 min
    Overall bit rate mode       : Variable
    Overall bit rate            : 38.2 Mb/s
    Movie name                  : The Hills Have Eyes / (2006) UNRATED REMUX 1080p Latino - CMHDD
    Encoded date                : UTC 2024-01-19 22:13:14
    Writing application         : mkvmerge v47.0.0 ('Black Flag') 64-bit
    Writing library             : libebml v1.3.10 + libmatroska v1.5.2

    Video
    ID                          : 1
    Format                      : AVC
    Format/Info                 : Advanced Video Codec
    Format profile              : High@L4.1
    Format settings             : CABAC / 4 Ref Frames
    Format settings, CABAC      : Yes
    Format settings, Reference  : 4 frames
    Codec ID                    : V_MPEG4/ISO/AVC
    Duration                    : 1 h 48 min
    Bit rate mode               : Variable
    Bit rate                    : 33.8 Mb/s
    Maximum bit rate            : 35.0 Mb/s
    Width                       : 1 920 pixels
    Height                      : 1 080 pixels
    Display aspect ratio        : 16:9
    Frame rate mode             : Constant
    Frame rate                  : 23.976 (24000/1001) FPS
    Color space                 : YUV
    Chroma subsampling          : 4:2:0
    Bit depth                   : 8 bits
    Scan type                   : Progressive
    Bits/(Pixel*Frame)          : 0.680
    Stream size                 : 25.6 GiB (89%)
    Language                    : English
    Default                     : Yes
    Forced                      : No

    Audio #1
    ID                          : 2
    Format                      : AC-3
    Format/Info                 : Audio Coding 3
    Commercial name             : Dolby Digital
    Codec ID                    : A_AC3
    Duration                    : 1 h 48 min
    Bit rate mode               : Constant
    Bit rate                    : 448 kb/s
    Channel(s)                  : 6 channels
    Channel layout              : L R C LFE Ls Rs
    Sampling rate               : 48.0 kHz
    Frame rate                  : 31.250 FPS (1536 SPF)
    Compression mode            : Lossy
    Stream size                 : 347 MiB (1%)
    Language                    : Spanish
    Service kind                : Complete Main
    Default                     : Yes
    Forced                      : Yes

    Audio #2
    ID                          : 3
    Format                      : DTS XLL
    Format/Info                 : Digital Theater Systems
    Commercial name             : DTS-HD Master Audio
    Codec ID                    : A_DTS
    Duration                    : 1 h 48 min
    Bit rate mode               : Variable
    Bit rate                    : 3 914 kb/s
    Channel(s)                  : 6 channels
    Channel layout              : C L R Ls Rs LFE
    Sampling rate               : 48.0 kHz
    Frame rate                  : 93.750 FPS (512 SPF)
    Bit depth                   : 24 bits
    Compression mode            : Lossless
    Stream size                 : 2.96 GiB (10%)
    Language                    : English
    Default                     : No
    Forced                      : No

    Text #1
    ID                          : 4
    Format                      : UTF-8
    Codec ID                    : S_TEXT/UTF8
    Codec ID/Info               : UTF-8 Plain Text
    Duration                    : 1 h 42 min
    Bit rate                    : 26 b/s
    Frame rate                  : 0.112 FPS
    Count of elements           : 692
    Stream size                 : 20.0 KiB (0%)
    Language                    : Spanish
    Default                     : No
    Forced                      : No

    Text #2
    ID                          : 5
    Format                      : PGS
    Muxing mode                 : zlib
    Codec ID                    : S_HDMV/PGS
    Codec ID/Info               : Picture based subtitle format used on BDs/HD-DVDs
    Duration                    : 1 h 47 min
    Bit rate                    : 14.5 kb/s
    Frame rate                  : 0.221 FPS
    Count of elements           : 1428
    Stream size                 : 11.2 MiB (0%)
    Language                    : Spanish
    Default                     : No
    Forced                      : No

     

  • Peso: 28.9 GiB

Sinopsis

Los Carter, una familia de clase media, ven truncadas sus vacaciones cuando su caravana sufre un extraño accidente en el desierto de Nuevo México. Aislados del mundo, pronto se darán cuenta de que no están solos. En las colinas habita una estirpe de sanguinarios mutantes, fruto de las continuas pruebas nucleares del ejército, y que no dudarán en aniquilar a los Carter de las formas más espeluznantes.

Ficha técnica

Video trailer de la película

Enlaces de descarga

Rip de Bluray

Descargar The Hills Have Eyes (2006) UNRATED REMUX 1080p Latino – CMHDD




Aportes de DPeliculasHDmega la pass es:dpeliculashdmega.org Aportes de CinemaniaHD la pass es:cinemaniahdd.com Aportes recientes:cinemaniahdd.net
Guardado en : Suspenso , Terror

Películas relacionadas

descargar The Hills Have Eyes (2006) UNRATED REMUX 1080p Latino – CMHDD Full 1080p 1080p gratis, The Hills Have Eyes (2006) UNRATED REMUX 1080p Latino – CMHDD Full 1080p mega 1 link, The Hills Have Eyes (2006) UNRATED REMUX 1080p Latino – CMHDD Full 1080p pelicula completa, descargar The Hills Have Eyes (2006) UNRATED REMUX 1080p Latino – CMHDD Full 1080p gratis en mega.

The Hills Have Eyes (2006) UNRATED REMUX 1080p Latino – CMHDD pelicula full hd, The Hills Have Eyes (2006) UNRATED REMUX 1080p Latino – CMHDD mega latino, The Hills Have Eyes (2006) UNRATED REMUX 1080p Latino – CMHDD 4k latino, The Hills Have Eyes (2006) UNRATED REMUX 1080p Latino – CMHDD pelicula completa, The Hills Have Eyes (2006) UNRATED REMUX 1080p Latino – CMHDD descargar gratis, descargar The Hills Have Eyes (2006) UNRATED REMUX 1080p Latino – CMHDD pelicula latino, The Hills Have Eyes (2006) UNRATED REMUX 1080p Latino – CMHDD 1 link mega, The Hills Have Eyes (2006) UNRATED REMUX 1080p Latino – CMHDD 1 link google drive, The Hills Have Eyes (2006) UNRATED REMUX 1080p Latino – CMHDD hd 1080p latino.
Comentarios 0