×

¿Problemas para descargar con Mozilla, EDGE? Deshabilita la opción "Abrir vinculos en una pestaña nueva" tal como lo muestra ésta imagen.

The Hills Have Eyes (2006) REMUX 1080p Latino – CMHDD

233 vistas

Información de The Hills Have Eyes (2006) REMUX 1080p Latino – CMHDD

Datos de la película

  • Calidad: Full 1080p
  • Audio: Español Latino AC3 5.1 BLURAY - Ingles DTS 5.1 BLURAY
  • Subtitulos: Español Latino PGS
  • Resolución: 1920x1080p
  • Formato: MKV
  • Codec: H.264
  • Encoder: Dracarys
  • Mediainfo: Clic para Mostrar Datos Ver
  • Format                      : Matroska
    Format version              : Version 4
    File size                   : 28.9 GiB
    Duration                    : 1 h 48 min
    Overall bit rate mode       : Variable
    Overall bit rate            : 38.2 Mb/s
    Movie name                  : The Hills Have Eyes (2006) REMUX 1080p Latino - CMHDD
    Encoded date                : UTC 2021-07-15 05:44:51
    Writing application         : mkvmerge v56.1.0 ('My Friend') 64-bit
    Writing library             : libebml v1.4.2 + libmatroska v1.6.4
    Cover                       : Yes
    Attachments                 : cover.jpg

    Video
    ID                          : 1
    ID in the original source m : 4113 (0x1011)
    Format                      : AVC
    Format/Info                 : Advanced Video Codec
    Format profile              : High@L4.1
    Format settings             : CABAC / 4 Ref Frames
    Format settings, CABAC      : Yes
    Format settings, Reference  : 4 frames
    Codec ID                    : V_MPEG4/ISO/AVC
    Duration                    : 1 h 48 min
    Bit rate mode               : Variable
    Bit rate                    : 33.8 Mb/s
    Maximum bit rate            : 35.0 Mb/s
    Width                       : 1 920 pixels
    Height                      : 1 080 pixels
    Display aspect ratio        : 16:9
    Frame rate mode             : Constant
    Frame rate                  : 23.976 (24000/1001) FPS
    Color space                 : YUV
    Chroma subsampling          : 4:2:0
    Bit depth                   : 8 bits
    Scan type                   : Progressive
    Bits/(Pixel*Frame)          : 0.680
    Stream size                 : 25.6 GiB (89%)
    Default                     : Yes
    Forced                      : No
    Original source medium      : Blu-ray

    Audio #1
    ID                          : 2
    ID in the original source m : 4352 (0x1100)
    Format                      : DTS XLL
    Format/Info                 : Digital Theater Systems
    Commercial name             : DTS-HD Master Audio
    Codec ID                    : A_DTS
    Duration                    : 1 h 48 min
    Bit rate mode               : Variable
    Bit rate                    : 3 914 kb/s
    Channel(s)                  : 6 channels
    Channel layout              : C L R Ls Rs LFE
    Sampling rate               : 48.0 kHz
    Frame rate                  : 93.750 FPS (512 SPF)
    Bit depth                   : 24 bits
    Compression mode            : Lossless
    Stream size                 : 2.96 GiB (10%)
    Language                    : English
    Default                     : No
    Forced                      : No
    Original source medium      : Blu-ray

    Audio #2
    ID                          : 3
    ID in the original source m : 4355 (0x1103)
    Format                      : AC-3
    Format/Info                 : Audio Coding 3
    Commercial name             : Dolby Digital
    Codec ID                    : A_AC3
    Duration                    : 1 h 48 min
    Bit rate mode               : Constant
    Bit rate                    : 448 kb/s
    Channel(s)                  : 6 channels
    Channel layout              : L R C LFE Ls Rs
    Sampling rate               : 48.0 kHz
    Frame rate                  : 31.250 FPS (1536 SPF)
    Compression mode            : Lossy
    Stream size                 : 347 MiB (1%)
    Language                    : Spanish
    Service kind                : Complete Main
    Default                     : Yes
    Forced                      : No
    Original source medium      : Blu-ray

    Text
    ID                          : 4
    ID in the original source m : 4610 (0x1202)
    Format                      : PGS
    Muxing mode                 : zlib
    Codec ID                    : S_HDMV/PGS
    Codec ID/Info               : Picture based subtitle format used on BDs/HD-DVDs
    Duration                    : 1 h 47 min
    Bit rate                    : 14.5 kb/s
    Count of elements           : 1428
    Stream size                 : 11.2 MiB (0%)
    Language                    : Spanish
    Default                     : No
    Forced                      : No
    Original source medium      : Blu-ray

    Menu
    00:00:00.000                : Chapter 01
    00:02:25.019                : Chapter 02
    00:04:41.072                : Chapter 03
    00:08:50.279                : Chapter 04
    00:16:44.461                : Chapter 05
    00:19:34.381                : Chapter 06
    00:25:36.326                : Chapter 07
    00:28:24.661                : Chapter 08
    00:34:25.229                : Chapter 09
    00:37:43.052                : Chapter 10
    00:43:47.958                : Chapter 11
    00:49:33.095                : Chapter 12
    01:00:01.639                : Chapter 13
    01:02:44.761                : Chapter 14
    01:07:55.696                : Chapter 15
    01:13:32.032                : Chapter 16
    01:16:47.060                : Chapter 17
    01:20:27.405                : Chapter 18
    01:24:34.402                : Chapter 19
    01:28:06.239                : Chapter 20
    01:32:55.695                : Chapter 21
    01:37:38.519                : Chapter 22
    01:42:05.285                : Chapter 23
    01:44:18.043                : Chapter 24

  • Peso: 28.9 GiB

Sinopsis

Los Carter, una familia de clase media, ven truncadas sus vacaciones cuando su caravana sufre un extraño accidente en el desierto de Nuevo México. Aislados del mundo, pronto se darán cuenta de que no están solos. En las colinas habita una estirpe de sanguinarios mutantes, fruto de las continuas pruebas nucleares del ejército, y que no dudarán en aniquilar a los Carter de las formas más espeluznantes.

Ficha técnica

Video trailer de la película

Enlaces de descarga

Rip de Bluray

Descargar The Hills Have Eyes (2006) REMUX 1080p Latino – CMHDD


Aportes de DPeliculasHDmega la pass es:dpeliculashdmega.org Aportes de CinemaniaHD la pass es:cinemaniahdd.com
Guardado en : Suspenso , Terror

Películas relacionadas

  • Resurrección (2022) AMZN WEB-DL 1080p Latino

    Resurrección (2022) AMZN WEB-DL 1080p Latino

    2022
    Resurrección (2022) AMZN WEB-DL 1080p Latino

    1h 43m 2022

    Descargar Resurrección (2022) AMZN Web-DL 1080p Latino. La vida cuidadosamente construida de una mujer...

    Director: Michael Kefeyalew

    Género: Drama

    Actores: Zarra Kaahn

  • Plan De Estudios (2022) NF WEB-DL 1080p Latino

    Plan De Estudios (2022) NF WEB-DL 1080p Latino

    2022
    Plan De Estudios (2022) NF WEB-DL 1080p Latino

    1h 41m 2022

    Un expolicía empieza a trabajar en el instituto en el que su difunto mejor amigo daba clase para enfrentarse...

    Director: Daniel Markowicz

    Género: Crimen

    Actores: Zuzanna Galewicz

  • Locked In (2021) PLACEBO Full HD 1080p Latino

    Locked In (2021) PLACEBO Full HD 1080p Latino

    2021
    Locked In (2021) PLACEBO Full HD 1080p Latino

    1h 30m 2021

    Descargar Locked In (2021) PLACEBO Full HD 1080p Latino. Una madre soltera debe proteger a su hija durante...

    Director: Joe Narode

    Género: Crimen

    Actores: Natalie Smith

  • Locked In (2021) REMUX 1080p Latino

    Locked In (2021) REMUX 1080p Latino

    2021
    Locked In (2021) REMUX 1080p Latino

    1h 30m 2021

    Descargar Locked In (2021) REMUX 1080p Latino. Una madre soltera debe proteger a su hija durante un robo...

    Director: Joe Narode

    Género: Crimen

    Actores: Natalie Smith

  • Nope (2022) [IMAX] REMUX 4K HDR Latino – CMHDD

    Nope (2022) [IMAX] REMUX 4K HDR Latino – CMHDD

    2022
    Nope (2022) [IMAX] REMUX 4K HDR Latino – CMHDD

    2h 15m 2022

    Los habitantes de un remoto pueblo del interior de California, entre los que se encuentran los propietarios...

    Director: Wayne Witherspoon

    Género: Ciencia ficción

    Actores: Wrenn Schmidt

descargar The Hills Have Eyes (2006) REMUX 1080p Latino – CMHDD Full 1080p 1080p gratis, The Hills Have Eyes (2006) REMUX 1080p Latino – CMHDD Full 1080p mega 1 link, The Hills Have Eyes (2006) REMUX 1080p Latino – CMHDD Full 1080p pelicula completa, descargar The Hills Have Eyes (2006) REMUX 1080p Latino – CMHDD Full 1080p gratis en mega.

The Hills Have Eyes (2006) REMUX 1080p Latino – CMHDD pelicula full hd, The Hills Have Eyes (2006) REMUX 1080p Latino – CMHDD mega latino, The Hills Have Eyes (2006) REMUX 1080p Latino – CMHDD 4k latino, The Hills Have Eyes (2006) REMUX 1080p Latino – CMHDD pelicula completa, The Hills Have Eyes (2006) REMUX 1080p Latino – CMHDD descargar gratis, descargar The Hills Have Eyes (2006) REMUX 1080p Latino – CMHDD pelicula latino, The Hills Have Eyes (2006) REMUX 1080p Latino – CMHDD 1 link mega, The Hills Have Eyes (2006) REMUX 1080p Latino – CMHDD 1 link google drive, The Hills Have Eyes (2006) REMUX 1080p Latino – CMHDD hd 1080p latino.