×

¿Problemas para descargar con Mozilla, EDGE? Deshabilita la opción "Abrir vinculos en una pestaña nueva" tal como lo muestra ésta imagen.

The Hills Have Eyes 2 (2007) UNRATED REMUX 1080p Latino – CMHDD

127 vistas

Información de The Hills Have Eyes 2 (2007) UNRATED REMUX 1080p Latino – CMHDD

Datos de la película

  • Calidad: Full 1080p
  • Audio: Español Latino AC3 5.1 BLURAY - Ingles DTS 5.1 BLURAY
  • Subtitulos: Español Latino SRT- FORZADOS SRT
  • Resolución: 19201080p
  • Formato: MKV
  • Codec: H.264
  • Encoder: Dracarys
  • Mediainfo: Clic para Mostrar Datos Ver
  • Format                      : Matroska
    Format version              : Version 4
    File size                   : 13.9 GiB
    Duration                    : 1 h 29 min
    Overall bit rate mode       : Variable
    Overall bit rate            : 22.2 Mb/s
    Movie name                  : The Hills Have Eyes 2 (2007) UNRATED REMUX 1080p Latino - CMHDD
    Encoded date                : UTC 2024-01-19 22:14:53
    Writing application         : mkvmerge v47.0.0 ('Black Flag') 64-bit
    Writing library             : libebml v1.3.10 + libmatroska v1.5.2

    Video
    ID                          : 1
    Format                      : AVC
    Format/Info                 : Advanced Video Codec
    Format profile              : High@L4.1
    Format settings             : CABAC / 4 Ref Frames
    Format settings, CABAC      : Yes
    Format settings, Reference  : 4 frames
    Codec ID                    : V_MPEG4/ISO/AVC
    Duration                    : 1 h 29 min
    Bit rate mode               : Variable
    Bit rate                    : 18.7 Mb/s
    Maximum bit rate            : 36.0 Mb/s
    Width                       : 1 920 pixels
    Height                      : 1 080 pixels
    Display aspect ratio        : 16:9
    Frame rate mode             : Constant
    Frame rate                  : 23.976 (24000/1001) FPS
    Color space                 : YUV
    Chroma subsampling          : 4:2:0
    Bit depth                   : 8 bits
    Scan type                   : Progressive
    Bits/(Pixel*Frame)          : 0.376
    Stream size                 : 11.8 GiB (84%)
    Language                    : English
    Default                     : Yes
    Forced                      : No
    Color range                 : Limited
    Color primaries             : BT.709
    Transfer characteristics    : BT.709
    Matrix coefficients         : BT.709

    Audio #1
    ID                          : 2
    Format                      : AC-3
    Format/Info                 : Audio Coding 3
    Commercial name             : Dolby Digital
    Codec ID                    : A_AC3
    Duration                    : 1 h 29 min
    Bit rate mode               : Constant
    Bit rate                    : 448 kb/s
    Channel(s)                  : 6 channels
    Channel layout              : L R C LFE Ls Rs
    Sampling rate               : 48.0 kHz
    Frame rate                  : 31.250 FPS (1536 SPF)
    Compression mode            : Lossy
    Stream size                 : 288 MiB (2%)
    Language                    : Spanish
    Service kind                : Complete Main
    Default                     : Yes
    Forced                      : Yes

    Audio #2
    ID                          : 3
    Format                      : DTS XBR
    Format/Info                 : Digital Theater Systems
    Commercial name             : DTS-HD High Resolution Audio
    Codec ID                    : A_DTS
    Duration                    : 1 h 29 min
    Bit rate mode               : Constant
    Bit rate                    : 3 018 kb/s
    Channel(s)                  : 6 channels
    Channel layout              : C L R Ls Rs LFE
    Sampling rate               : 48.0 kHz
    Frame rate                  : 93.750 FPS (512 SPF)
    Bit depth                   : 24 bits
    Compression mode            : Lossy
    Stream size                 : 1.90 GiB (14%)
    Language                    : English
    Default                     : No
    Forced                      : No

    Text #1
    ID                          : 4
    Format                      : UTF-8
    Codec ID                    : S_TEXT/UTF8
    Codec ID/Info               : UTF-8 Plain Text
    Duration                    : 1 h 22 min
    Bit rate                    : 0 b/s
    Frame rate                  : 0.003 FPS
    Count of elements           : 15
    Stream size                 : 615 Bytes (0%)
    Title                       : Forzados SRT
    Language                    : Spanish
    Default                     : Yes
    Forced                      : Yes

    Text #2
    ID                          : 5
    Format                      : UTF-8
    Codec ID                    : S_TEXT/UTF8
    Codec ID/Info               : UTF-8 Plain Text
    Duration                    : 1 h 23 min
    Bit rate                    : 48 b/s
    Frame rate                  : 0.174 FPS
    Count of elements           : 868
    Stream size                 : 29.4 KiB (0%)
    Language                    : Spanish
    Default                     : No
    Forced                      : No

    Text #3
    ID                          : 6
    Format                      : PGS
    Muxing mode                 : zlib
    Codec ID                    : S_HDMV/PGS
    Codec ID/Info               : Picture based subtitle format used on BDs/HD-DVDs
    Duration                    : 1 h 22 min
    Bit rate                    : 627 b/s
    Frame rate                  : 0.006 FPS
    Count of elements           : 30
    Stream size                 : 381 KiB (0%)
    Title                       : Forzados PGS
    Language                    : Spanish
    Default                     : No
    Forced                      : Yes

    Text #4
    ID                          : 7
    Format                      : PGS
    Muxing mode                 : zlib
    Codec ID                    : S_HDMV/PGS
    Codec ID/Info               : Picture based subtitle format used on BDs/HD-DVDs
    Duration                    : 1 h 23 min
    Bit rate                    : 26.2 kb/s
    Frame rate                  : 0.370 FPS
    Count of elements           : 1850
    Stream size                 : 15.6 MiB (0%)
    Language                    : Spanish
    Default                     : No
    Forced                      : No

     

  • Peso: 13.9 GiB

Sinopsis

Remake de la secuela de «Las colinas tienen ojos», de Wes Craven. Lo que comenzó con la familia Carter, no llegó, claramente, a su fin con la familia Carter. Como parte de una misión habitual, una unidad de soldados de la Guardia Nacional se detiene en una posición avanzada de Nuevo México para entregar equipo a un grupo de científicos atómicos. Sin embargo, al llegar al aislado campo de investigación, lo hallan misteriosamente desierto. Después de haber divisado una señal de socorro en una lejana cordillera, el equipo decide emprender una misión de búsqueda y rescate por las montañas con el fin de localizar a los científicos desaparecidos. No saben que éstas son las mismas montañas que la desventurada familia Carter visitó en una ocasión, y en las que acecha una tribu de mutantes antropófagos. Y en esta ocasión, las fuerzas del mal que pretenden la aniquilación de los soldados son aún mayores.

Ficha técnica

Video trailer de la película

Enlaces de descarga

Rip de Bluray

Descargar The Hills Have Eyes 2 (2007) UNRATED REMUX 1080p Latino – CMHDD




Aportes de DPeliculasHDmega la pass es:dpeliculashdmega.org Aportes de CinemaniaHD la pass es:cinemaniahdd.com Aportes recientes:cinemaniahdd.net
Guardado en : Fantasía , Suspenso , Terror

Películas relacionadas

descargar The Hills Have Eyes 2 (2007) UNRATED REMUX 1080p Latino – CMHDD Full 1080p 1080p gratis, The Hills Have Eyes 2 (2007) UNRATED REMUX 1080p Latino – CMHDD Full 1080p mega 1 link, The Hills Have Eyes 2 (2007) UNRATED REMUX 1080p Latino – CMHDD Full 1080p pelicula completa, descargar The Hills Have Eyes 2 (2007) UNRATED REMUX 1080p Latino – CMHDD Full 1080p gratis en mega.

The Hills Have Eyes 2 (2007) UNRATED REMUX 1080p Latino – CMHDD pelicula full hd, The Hills Have Eyes 2 (2007) UNRATED REMUX 1080p Latino – CMHDD mega latino, The Hills Have Eyes 2 (2007) UNRATED REMUX 1080p Latino – CMHDD 4k latino, The Hills Have Eyes 2 (2007) UNRATED REMUX 1080p Latino – CMHDD pelicula completa, The Hills Have Eyes 2 (2007) UNRATED REMUX 1080p Latino – CMHDD descargar gratis, descargar The Hills Have Eyes 2 (2007) UNRATED REMUX 1080p Latino – CMHDD pelicula latino, The Hills Have Eyes 2 (2007) UNRATED REMUX 1080p Latino – CMHDD 1 link mega, The Hills Have Eyes 2 (2007) UNRATED REMUX 1080p Latino – CMHDD 1 link google drive, The Hills Have Eyes 2 (2007) UNRATED REMUX 1080p Latino – CMHDD hd 1080p latino.
Comentarios 0