×

¿Problemas para descargar con Mozilla, EDGE? Deshabilita la opción "Abrir vinculos en una pestaña nueva" tal como lo muestra ésta imagen.

The Head of Joaquin Murrieta (2023) Primera Temporada AMZN WEB-DL 1080p Latino

346 vistas

Información de The Head of Joaquin Murrieta (2023) Primera Temporada AMZN WEB-DL 1080p Latino

Datos de la película

  • Calidad: 1080p
  • Audio: Español Latino AC3 5.1 WEB-DL - Ingles AC3 5.1 WEB-DL
  • Subtitulos: Español Latino SRT- FORZADOS SRT
  • Resolución: 1920x1080
  • Formato: MKV
  • Codec: H.264
  • Encoder: cinemaniahdd
  • Mediainfo: Clic para Mostrar Datos Ver
  • The Head of Joaquin Murrieta T01E01 AMZN WEB-DL 1080p Latino [CNMNHDD].mkv
    Format                      : Matroska
    Format version              : Version 4
    File size                   : 2.54 GiB
    Duration                    : 46 min 1 s
    Overall bit rate            : 7 890 kb/s
    Movie name                  : The Head of Joaquin Murrieta S01E01 - Gold [1080p] - CinemaniaHDD.Net
    Encoded date                : UTC 2023-02-17 00:41:03
    Writing application         : mkvmerge v56.1.0 ('My Friend') 64-bit
    Writing library             : libebml v1.4.2 + libmatroska v1.6.4

    Video
    ID                          : 1
    Format                      : AVC
    Format/Info                 : Advanced Video Codec
    Format profile              : High@L4
    Format settings             : CABAC / 4 Ref Frames
    Format settings, CABAC      : Yes
    Format settings, Reference  : 4 frames
    Codec ID                    : V_MPEG4/ISO/AVC
    Duration                    : 46 min 1 s
    Bit rate mode               : Constant
    Bit rate                    : 5 967 kb/s
    Nominal bit rate            : 10 000 kb/s
    Width                       : 1 920 pixels
    Height                      : 800 pixels
    Display aspect ratio        : 2.40:1
    Frame rate mode             : Constant
    Frame rate                  : 24.000 FPS
    Color space                 : YUV
    Chroma subsampling          : 4:2:0
    Bit depth                   : 8 bits
    Scan type                   : Progressive
    Bits/(Pixel*Frame)          : 0.162
    Stream size                 : 1.92 GiB (76%)
    Title                       : CinemaniaHDD
    Default                     : Yes
    Forced                      : No
    Color range                 : Limited
    Color primaries             : BT.709
    Transfer characteristics    : BT.709
    Matrix coefficients         : BT.709

    Audio #1
    ID                          : 2
    Format                      : AC-3
    Format/Info                 : Audio Coding 3
    Commercial name             : Dolby Digital
    Codec ID                    : A_AC3
    Duration                    : 46 min 1 s
    Bit rate mode               : Constant
    Bit rate                    : 640 kb/s
    Channel(s)                  : 6 channels
    Channel layout              : L R C LFE Ls Rs
    Sampling rate               : 48.0 kHz
    Frame rate                  : 31.250 FPS (1536 SPF)
    Compression mode            : Lossy
    Stream size                 : 211 MiB (8%)
    Title                       : Español latino [CinemaniaHDD]
    Language                    : Spanish
    Service kind                : Complete Main
    Default                     : Yes
    Forced                      : No

    Audio #2
    ID                          : 3
    Format                      : E-AC-3
    Format/Info                 : Enhanced AC-3
    Commercial name             : Dolby Digital Plus
    Codec ID                    : A_EAC3
    Duration                    : 46 min 1 s
    Bit rate mode               : Constant
    Bit rate                    : 640 kb/s
    Channel(s)                  : 6 channels
    Channel layout              : L R C LFE Ls Rs
    Sampling rate               : 48.0 kHz
    Frame rate                  : 31.250 FPS (1536 SPF)
    Compression mode            : Lossy
    Stream size                 : 211 MiB (8%)
    Title                       : Español latino / E-AC3 [CinemaniaHDD]
    Language                    : Spanish
    Service kind                : Complete Main
    Default                     : No
    Forced                      : No

    Audio #3
    ID                          : 4
    Format                      : E-AC-3
    Format/Info                 : Enhanced AC-3
    Commercial name             : Dolby Digital Plus
    Codec ID                    : A_EAC3
    Duration                    : 46 min 1 s
    Bit rate mode               : Constant
    Bit rate                    : 640 kb/s
    Channel(s)                  : 6 channels
    Channel layout              : L R C LFE Ls Rs
    Sampling rate               : 48.0 kHz
    Frame rate                  : 31.250 FPS (1536 SPF)
    Compression mode            : Lossy
    Stream size                 : 211 MiB (8%)
    Title                       : Inglés [CinemaniaHDD]
    Language                    : English
    Service kind                : Complete Main
    Default                     : No
    Forced                      : No

    Text #1
    ID                          : 5
    Format                      : UTF-8
    Codec ID                    : S_TEXT/UTF8
    Codec ID/Info               : UTF-8 Plain Text
    Duration                    : 34 min 26 s
    Bit rate                    : 6 b/s
    Count of elements           : 58
    Stream size                 : 1.58 KiB (0%)
    Title                       : Forzados [CinemaniaHDD]
    Language                    : Spanish
    Default                     : Yes
    Forced                      : Yes

    Text #2
    ID                          : 6
    Format                      : UTF-8
    Codec ID                    : S_TEXT/UTF8
    Codec ID/Info               : UTF-8 Plain Text
    Duration                    : 44 min 52 s
    Bit rate                    : 57 b/s
    Count of elements           : 695
    Stream size                 : 18.7 KiB (0%)
    Title                       : Español latino [CinemaniaHDD]
    Language                    : Spanish
    Default                     : No
    Forced                      : No

    Text #3
    ID                          : 7
    Format                      : UTF-8
    Codec ID                    : S_TEXT/UTF8
    Codec ID/Info               : UTF-8 Plain Text
    Duration                    : 44 min 32 s
    Bit rate                    : 28 b/s
    Count of elements           : 277
    Stream size                 : 9.34 KiB (0%)
    Title                       : Inglés [CinemaniaHDD]
    Language                    : English
    Default                     : No
    Forced                      : No

    Menu
    00:00:00.000                : 1. Prime Video
    00:00:06.000                : Scene 2
    00:00:09.000                : Scene 3
    00:04:02.000                : 4. Title Sequence
    00:04:09.000                : Scene 5
    00:07:35.000                : Scene 6
    00:11:16.000                : Scene 7
    00:14:24.000                : Scene 8
    00:19:56.000                : Scene 9
    00:23:00.000                : Scene 10
    00:26:42.000                : Scene 11
    00:31:30.000                : Scene 12
    00:31:35.000                : Scene 13
    00:31:47.000                : Scene 14
    00:35:18.000                : Scene 15
    00:39:16.000                : Scene 16
    00:43:01.000                : 17. End Credits

     

  • Peso: 2.54 GiB Aprox ---- 19 GiB in 8 Chapters.

Sinopsis

En la frontera recién trazada entre México y Estados Unidos una guerra sin cuartel se libra gracias a la fiebre del oro, alimentada por la avaricia, la ira y la xenofobia. Allí, en la nueva California, un grupo de inmigrantes, bandoleros y nativos unen fuerzas para crear el mito del Robin Hood latinoamericano: Joaquín Murrieta.
***capitulo 2 reparado***

Ficha técnica

Video trailer de la película

Enlaces de descarga

Rip de Bluray

Descargar The Head of Joaquin Murrieta (2023) Primera Temporada AMZN WEB-DL 1080p Latino




Aportes de DPeliculasHDmega la pass es:dpeliculashdmega.org Aportes de CinemaniaHD la pass es:cinemaniahdd.com Aportes recientes:cinemaniahdd.net
Guardado en : Drama , Series , Western

Películas relacionadas

descargar The Head of Joaquin Murrieta (2023) Primera Temporada AMZN WEB-DL 1080p Latino 1080p 1080p gratis, The Head of Joaquin Murrieta (2023) Primera Temporada AMZN WEB-DL 1080p Latino 1080p mega 1 link, The Head of Joaquin Murrieta (2023) Primera Temporada AMZN WEB-DL 1080p Latino 1080p serie completa, descargar The Head of Joaquin Murrieta (2023) Primera Temporada AMZN WEB-DL 1080p Latino 1080p gratis en mega.

The Head of Joaquin Murrieta (2023) Primera Temporada AMZN WEB-DL 1080p Latino pelicula full hd, The Head of Joaquin Murrieta (2023) Primera Temporada AMZN WEB-DL 1080p Latino mega latino, The Head of Joaquin Murrieta (2023) Primera Temporada AMZN WEB-DL 1080p Latino 4k latino, The Head of Joaquin Murrieta (2023) Primera Temporada AMZN WEB-DL 1080p Latino pelicula completa, The Head of Joaquin Murrieta (2023) Primera Temporada AMZN WEB-DL 1080p Latino descargar gratis, descargar The Head of Joaquin Murrieta (2023) Primera Temporada AMZN WEB-DL 1080p Latino pelicula latino, The Head of Joaquin Murrieta (2023) Primera Temporada AMZN WEB-DL 1080p Latino 1 link mega, The Head of Joaquin Murrieta (2023) Primera Temporada AMZN WEB-DL 1080p Latino 1 link google drive, The Head of Joaquin Murrieta (2023) Primera Temporada AMZN WEB-DL 1080p Latino hd 1080p latino.
Comentarios 0