×

¿Problemas para descargar con Mozilla, EDGE? Deshabilita la opción "Abrir vinculos en una pestaña nueva" tal como lo muestra ésta imagen.

The Head (2022) Segunda Temporada HMAX WEB-DL 1080p Castellano

45 vistas

Información de The Head (2022) Segunda Temporada HMAX WEB-DL 1080p Castellano

Datos de la película

  • Calidad: 1080p
  • Audio: Español España AC3 5.1 - Ingles AC3 5.1
  • Subtitulos: Español España SRT - Ingles SRT
  • Resolución: 1920x1080
  • Formato: MKV
  • Codec: H.264
  • Encoder: cinemaniahdd
  • Mediainfo: Clic para Mostrar Datos Ver
  • The Head T02E01 HMAX WEB-DL 1080p Castellano [CNMNHDD].mkv
    Format                      : Matroska
    Format version              : Version 4
    File size                   : 3.22 GiB
    Duration                    : 51 min 26 s
    Overall bit rate mode       : Variable
    Overall bit rate            : 8 960 kb/s
    Movie name                  : The Head S02E01 - Episodio VII [1080p] - CinemaniaHDD.Net
    Encoded date                : UTC 2022-12-23 23:14:16
    Writing application         : mkvmerge v58.0.0 ('Supper's Ready') 32-bit
    Writing library             : libebml v1.4.2 + libmatroska v1.6.4

    Video
    ID                          : 1
    Format                      : AVC
    Format/Info                 : Advanced Video Codec
    Format profile              : High@L4
    Format settings             : CABAC / 4 Ref Frames
    Format settings, CABAC      : Yes
    Format settings, Reference  : 4 frames
    Codec ID                    : V_MPEG4/ISO/AVC
    Duration                    : 51 min 26 s
    Bit rate mode               : Variable
    Bit rate                    : 8 250 kb/s
    Maximum bit rate            : 12.4 Mb/s
    Width                       : 1 920 pixels
    Height                      : 1 080 pixels
    Display aspect ratio        : 16:9
    Frame rate mode             : Constant
    Frame rate                  : 25.000 FPS
    Color space                 : YUV
    Chroma subsampling          : 4:2:0
    Bit depth                   : 8 bits
    Scan type                   : Progressive
    Bits/(Pixel*Frame)          : 0.159
    Stream size                 : 2.94 GiB (91%)
    Title                       : CinemaniaHDD
    Writing library             : x264 core 157 r2965 861cec4
    Encoding settings           : cabac=1 / ref=4 / deblock=1:0:0 / analyse=0x3:0x113 / me=hex / subme=7 / psy=1 / psy_rd=1.00:0.00 / mixed_ref=1 / me_range=16 / chroma_me=1 / trellis=1 / 8x8dct=1 / cqm=0 / deadzone=21,11 / fast_pskip=1 / chroma_qp_offset=-2 / threads=34 / lookahead_threads=5 / sliced_threads=0 / nr=0 / decimate=1 / interlaced=0 / bluray_compat=0 / constrained_intra=0 / bframes=3 / b_pyramid=2 / b_adapt=1 / b_bias=0 / direct=1 / weightb=1 / open_gop=0 / weightp=2 / keyint=100 / keyint_min=100 / scenecut=40 / intra_refresh=0 / rc_lookahead=40 / rc=2pass / mbtree=1 / bitrate=8250 / ratetol=1.0 / qcomp=0.60 / qpmin=0 / qpmax=69 / qpstep=4 / cplxblur=20.0 / qblur=0.5 / vbv_maxrate=12375 / vbv_bufsize=6187 / nal_hrd=vbr / filler=0 / ip_ratio=1.40 / aq=1:1.00
    Default                     : Yes
    Forced                      : No
    Color range                 : Limited
    Color primaries             : BT.709
    Transfer characteristics    : BT.709
    Matrix coefficients         : BT.709

    Audio #1
    ID                          : 2
    Format                      : AC-3
    Format/Info                 : Audio Coding 3
    Commercial name             : Dolby Digital
    Codec ID                    : A_AC3
    Duration                    : 51 min 26 s
    Bit rate mode               : Constant
    Bit rate                    : 384 kb/s
    Channel(s)                  : 6 channels
    Channel layout              : L R C LFE Ls Rs
    Sampling rate               : 48.0 kHz
    Frame rate                  : 31.250 FPS (1536 SPF)
    Compression mode            : Lossy
    Stream size                 : 141 MiB (4%)
    Title                       : Español Castellano [CinemaniaHDD]
    Language                    : Spanish
    Service kind                : Complete Main
    Default                     : No
    Forced                      : No

    Audio #2
    ID                          : 3
    Format                      : AC-3
    Format/Info                 : Audio Coding 3
    Commercial name             : Dolby Digital
    Codec ID                    : A_AC3
    Duration                    : 51 min 26 s
    Bit rate mode               : Constant
    Bit rate                    : 384 kb/s
    Channel(s)                  : 6 channels
    Channel layout              : L R C LFE Ls Rs
    Sampling rate               : 48.0 kHz
    Frame rate                  : 31.250 FPS (1536 SPF)
    Compression mode            : Lossy
    Stream size                 : 141 MiB (4%)
    Title                       : Inglés [CinemaniaHDD]
    Language                    : English
    Service kind                : Complete Main
    Default                     : No
    Forced                      : No

    Text #1
    ID                          : 4
    Format                      : UTF-8
    Codec ID                    : S_TEXT/UTF8
    Codec ID/Info               : UTF-8 Plain Text
    Duration                    : 48 min 39 s
    Bit rate                    : 2 b/s
    Count of elements           : 25
    Stream size                 : 821 Bytes (0%)
    Title                       : Forzados [CinemaniaHDD]
    Language                    : Spanish
    Default                     : No
    Forced                      : Yes

    Text #2
    ID                          : 5
    Format                      : UTF-8
    Codec ID                    : S_TEXT/UTF8
    Codec ID/Info               : UTF-8 Plain Text
    Duration                    : 48 min 40 s
    Bit rate                    : 49 b/s
    Count of elements           : 600
    Stream size                 : 17.7 KiB (0%)
    Title                       : Español Castellano [CinemaniaHDD]
    Language                    : Spanish
    Default                     : No
    Forced                      : No

    Text #3
    ID                          : 6
    Format                      : UTF-8
    Codec ID                    : S_TEXT/UTF8
    Codec ID/Info               : UTF-8 Plain Text
    Duration                    : 48 min 30 s
    Bit rate                    : 50 b/s
    Count of elements           : 602
    Stream size                 : 18.1 KiB (0%)
    Title                       : Inglés  [CinemaniaHDD]
    Language                    : English
    Default                     : No
    Forced                      : No

     

  • Peso: 3.22 GiB Aprox ---- 17 GiB in 6 Chapters.

Sinopsis

Una cabeza humana aparece en Polaris VI, una base de investigación internacional en la Antártida, que desencadena una serie de eventos que inundan el lugar.

Ficha técnica

Video trailer de la película

Enlaces de descarga

Rip de Bluray

Descargar The Head (2022) Segunda Temporada HMAX WEB-DL 1080p Castellano




Aportes de DPeliculasHDmega la pass es:dpeliculashdmega.org Aportes de CinemaniaHD la pass es:cinemaniahdd.com
Guardado en : Drama , Misterio , Series

Películas relacionadas

descargar The Head (2022) Segunda Temporada HMAX WEB-DL 1080p Castellano 1080p 1080p gratis, The Head (2022) Segunda Temporada HMAX WEB-DL 1080p Castellano 1080p mega 1 link, The Head (2022) Segunda Temporada HMAX WEB-DL 1080p Castellano 1080p serie completa, descargar The Head (2022) Segunda Temporada HMAX WEB-DL 1080p Castellano 1080p gratis en mega.

The Head (2022) Segunda Temporada HMAX WEB-DL 1080p Castellano pelicula full hd, The Head (2022) Segunda Temporada HMAX WEB-DL 1080p Castellano mega latino, The Head (2022) Segunda Temporada HMAX WEB-DL 1080p Castellano 4k latino, The Head (2022) Segunda Temporada HMAX WEB-DL 1080p Castellano pelicula completa, The Head (2022) Segunda Temporada HMAX WEB-DL 1080p Castellano descargar gratis, descargar The Head (2022) Segunda Temporada HMAX WEB-DL 1080p Castellano pelicula latino, The Head (2022) Segunda Temporada HMAX WEB-DL 1080p Castellano 1 link mega, The Head (2022) Segunda Temporada HMAX WEB-DL 1080p Castellano 1 link google drive, The Head (2022) Segunda Temporada HMAX WEB-DL 1080p Castellano hd 1080p latino.
Comentarios 0