The Hate U Give (2018) WEB-DL HD 1080p Español Latino

564 vistas
1 estrella2 estrellas3 estrellas4 estrellas5 estrellas (1 votos, promedio: 1,00 de 5)
Cargando…

Información de The Hate U Give (2018) WEB-DL HD 1080p Español Latino

Datos de la película

  • Calidad: WEBDL
  • Audio: Español Latino AC3 2.0 iTunes - Ingles AC3 5.1 iTunes
  • Subtitulos: Español Latino SRT- FORZADOS SRT
  • Resolución: 1920x800
  • Formato: MKV
  • Codec: H.264
  • Encoder: FGT
  • Mediainfo: Clic para Mostrar Datos Ver
  • The Hate U Give.2018.1080p.WEB-DL.Latino.mkv
    Format                      : Matroska
    Format version              : Version 4
    File size                   : 4.81 GiB
    Duration                    : 2 h 13 min
    Overall bit rate            : 5 152 kb/s
    Movie name                  : CinemaniaHDD.net
    Encoded date                : UTC 2019-01-08 10:33:47
    Writing application         : mkvmerge v29.0.0 ('Like It Or Not') 64-bit
    Writing library             : libebml v1.3.6 + libmatroska v1.4.9

    Video
    ID                          : 1
    Format                      : AVC
    Format/Info                 : Advanced Video Codec
    Format profile              : [email protected]
    Format settings             : CABAC / 5 Ref Frames
    Format settings, CABAC      : Yes
    Format settings, ReFrames   : 5 frames
    Codec ID                    : V_MPEG4/ISO/AVC
    Duration                    : 2 h 13 min
    Bit rate                    : 4 512 kb/s
    Width                       : 1 920 pixels
    Height                      : 800 pixels
    Display aspect ratio        : 2.40:1
    Frame rate mode             : Constant
    Frame rate                  : 23.976 FPS
    Color space                 : YUV
    Chroma subsampling          : 4:2:0
    Bit depth                   : 8 bits
    Scan type                   : Progressive
    Bits/(Pixel*Frame)          : 0.123
    Stream size                 : 4.21 GiB (88%)
    Language                    : English
    Default                     : Yes
    Forced                      : No
    Color range                 : Limited
    Color primaries             : BT.709
    Transfer characteristics    : BT.709
    Matrix coefficients         : BT.709

    Audio #1
    ID                          : 2
    Format                      : AC-3
    Format/Info                 : Audio Coding 3
    Commercial name             : Dolby Digital
    Codec ID                    : A_AC3
    Duration                    : 2 h 13 min
    Bit rate mode               : Constant
    Bit rate                    : 256 kb/s
    Channel(s)                  : 2 channels
    Channel layout              : L R
    Sampling rate               : 48.0 kHz
    Frame rate                  : 31.250 FPS (1536 SPF)
    Bit depth                   : 16 bits
    Compression mode            : Lossy
    Delay relative to video     : -43 ms
    Stream size                 : 244 MiB (5%)
    Title                       : Español Latino
    Service kind                : Complete Main
    Default                     : Yes
    Forced                      : Yes

    Audio #2
    ID                          : 3
    Format                      : AC-3
    Format/Info                 : Audio Coding 3
    Commercial name             : Dolby Digital
    Codec ID                    : A_AC3
    Duration                    : 2 h 13 min
    Bit rate mode               : Constant
    Bit rate                    : 384 kb/s
    Channel(s)                  : 6 channels
    Channel layout              : L R C LFE Ls Rs
    Sampling rate               : 48.0 kHz
    Frame rate                  : 31.250 FPS (1536 SPF)
    Bit depth                   : 16 bits
    Compression mode            : Lossy
    Delay relative to video     : -43 ms
    Stream size                 : 366 MiB (7%)
    Language                    : English
    Service kind                : Complete Main
    Default                     : No
    Forced                      : No

    Text #1
    ID                          : 4
    Format                      : UTF-8
    Codec ID                    : S_TEXT/UTF8
    Codec ID/Info               : UTF-8 Plain Text
    Duration                    : 1 h 47 min
    Bit rate                    : 0 b/s
    Count of elements           : 6
    Stream size                 : 135 Bytes (0%)
    Title                       : Español Latino
    Language                    : Spanish
    Default                     : Yes
    Forced                      : Yes

    Text #2
    ID                          : 5
    Format                      : UTF-8
    Codec ID                    : S_TEXT/UTF8
    Codec ID/Info               : UTF-8 Plain Text
    Duration                    : 2 h 5 min
    Bit rate                    : 60 b/s
    Count of elements           : 1764
    Stream size                 : 55.5 KiB (0%)
    Title                       : Español Latino
    Language                    : Spanish
    Default                     : No
    Forced                      : No

    Menu
    00:00:00.000                : en:Chapter 01
    00:03:55.777                : en:Chapter 02
    00:08:18.080                : en:Chapter 03
    00:13:14.251                : en:Chapter 04
    00:19:32.127                : en:Chapter 05
    00:24:48.318                : en:Chapter 06
    00:29:34.312                : en:Chapter 07
    00:34:54.215                : en:Chapter 08
    00:40:09.530                : en:Chapter 09
    00:45:05.408                : en:Chapter 10
    00:50:09.210                : en:Chapter 11
    00:58:27.583                : en:Chapter 12
    01:03:58.371                : en:Chapter 13
    01:10:00.983                : en:Chapter 14
    01:14:51.272                : en:Chapter 15
    01:19:50.778                : en:Chapter 16
    01:27:09.591                : en:Chapter 17
    01:32:11.683                : en:Chapter 18
    01:37:36.215                : en:Chapter 19
    01:43:59.056                : en:Chapter 20
    01:49:39.146                : en:Chapter 21
    01:56:20.421                : en:Chapter 22
    01:58:00.145                : en:Chapter 23
    02:03:50.954                : en:Chapter 24

  • Peso: 4.81 GiB

Sinopsis

Starr Carter es una chica de dieciséis años que vive entre dos mundos: el barrio pobre de gente negra donde nació y su escuela situada en un elegante barrio residencial blanco. El difícil equilibrio entre ambos se hace añicos cuando ella es testigo de la muerte a tiros de su mejor amigo, Khalil, a manos de un policía. A partir de ese momento, todo lo que Starr diga acerca de la aterradora noche que cambió su vida podrá ser usado de excusa por unos y como arma por otros. Y lo peor de todo es que, tanto los de un lado como los de otro, la tienen en el punto de mira y amenazan con poner en riesgo su vida.

Adaptación de la novela de Angie Thomas conocida en España como ‘El odio que das’.

Ficha técnica

  • Titulo original: The Hate U Give
  • Fecha de lanzamiento: 19-10-2018 (United States of America)
  • Director: George Tillman, Jr.
  • Género: Crimen, Drama
  • Puntuación: 1.0 1 votos
  • Duración:
    2h 13m

Video trailer de la película

Enlaces de descarga

Rip de Bluray

Descargar The Hate U Give (2018) WEB-DL HD 1080p Español Latino




Aportes de DPeliculasHDmega la pass es:dpeliculashdmega.org Aportes de CinemaniaHD la pass es:cinemaniahdd.com
Guardado en : Crimen , Drama

Películas relacionadas

  • The mule (2018) WEB-DL 1080p Latino

    2018
    The mule (2018) WEB-DL 1080p Latino

    0.0 1h 56m 2018

    A Earl Stone (Eastwood), un octogenario que está en quiebra, solo, y que se enfrenta a la ejecución...

    Director: Clint Eastwood

    Género: Crimen

    Actores: Victor Rasuk

  • Nace Una Estrella (2018) 4K UHD HDR Latino

    2018
    Nace Una Estrella (2018) 4K UHD HDR Latino

    0.0 2h 25m 2018

    Descargar Nace Una Estrella (2018) 4K UHD HDR Latino, Mega, Google Drive. Jackson Maine es una estrella...

    Director: Bradley Cooper

    Género: 4K HDR

    Actores: Willam Belli

  • FBI (2018) Temporada 1 1080p WEB-DL Latino

    2018
    FBI (2018) Temporada 1 1080p WEB-DL Latino

    0.0 0h 43m 2018

    Serie de TV (2018-). Drama vertiginoso sobre el funcionamiento interno de la oficina de Nueva York del...

    Director: Dick Wolf

    Género: Crimen

    Actores: Zeeko Zaki

  • Turn Up Charlie (2019) Temporada 1 NF 1080p Latino

    2019
    Turn Up Charlie (2019) Temporada 1 NF 1080p Latino

    0.0 0h 25m 2019

    Un DJ de mala racha planea reconstruir su carrera musical mientras trabaja como niñera para la salvaje...

    Director: Idris Elba

    Género: Comedia

    Actores: Piper Perabo

Comentarios 0