The Hate U Give (2018) 1080p Latino

356 vistas
1 estrella2 estrellas3 estrellas4 estrellas5 estrellas (2 votos, promedio: 3,00 de 5)
Cargando…

Información de The Hate U Give (2018) 1080p Latino

Datos de la película

  • Calidad: 1080p
  • Audio: Español Latino AC3 5.1 BLURAY - Ingles AC3 5.1 BLURAY
  • Subtitulos: Español Latino SRT- FORZADOS SRT
  • Resolución: 1920x800p
  • Formato: MKV
  • Codec: H.264
  • Encoder: Chesse92
  • Mediainfo: Clic para Mostrar Datos Ver
  • The Hate U Give (2018) HD Español Latino.mkv
    Format                      : Matroska
    Format version              : Version 4
    File size                   : 4.06 GiB
    Duration                    : 2 h 13 min
    Overall bit rate            : 4 365 kb/s
    Movie name                  : Cinemaniahdd.net
    Encoded date                : UTC 2019-01-13 00:27:56 / UTC 2019-01-12T04:34:52Z
    Writing application         : mkvmerge v30.1.0 ('Forever And More') 64-bit
    Writing library             : libebml v1.3.6 + libmatroska v1.4.9 / Lavf57.7.2

    Video
    ID                          : 1
    Format                      : AVC
    Format/Info                 : Advanced Video Codec
    Format profile              : [email protected]
    Format settings             : CABAC / 5 Ref Frames
    Format settings, CABAC      : Yes
    Format settings, ReFrames   : 5 frames
    Codec ID                    : V_MPEG4/ISO/AVC
    Duration                    : 2 h 13 min
    Bit rate                    : 3 500 kb/s
    Width                       : 1 920 pixels
    Height                      : 800 pixels
    Display aspect ratio        : 2.40:1
    Frame rate mode             : Constant
    Frame rate                  : 23.976 (24000/1001) FPS
    Color space                 : YUV
    Chroma subsampling          : 4:2:0
    Bit depth                   : 8 bits
    Scan type                   : Progressive
    Bits/(Pixel*Frame)          : 0.095
    Stream size                 : 3.14 GiB (77%)
    Title                       : HD1080p [Bluray]
    Writing library             : x264 core 155 r2901 7d0ff22
    Encoding settings           : cabac=1 / ref=5 / deblock=1:0:0 / analyse=0x3:0x113 / me=hex / subme=8 / psy=1 / psy_rd=1.00:0.00 / mixed_ref=1 / me_range=16 / chroma_me=1 / trellis=2 / 8x8dct=1 / cqm=0 / deadzone=21,11 / fast_pskip=1 / chroma_qp_offset=-2 / threads=25 / lookahead_threads=4 / sliced_threads=0 / nr=0 / decimate=1 / interlaced=0 / bluray_compat=0 / constrained_intra=0 / bframes=3 / b_pyramid=2 / b_adapt=1 / b_bias=0 / direct=3 / weightb=1 / open_gop=0 / weightp=2 / keyint=240 / keyint_min=24 / scenecut=40 / intra_refresh=0 / rc_lookahead=50 / rc=abr / mbtree=1 / bitrate=3500 / ratetol=1.0 / qcomp=0.60 / qpmin=0 / qpmax=69 / qpstep=4 / vbv_maxrate=62500 / vbv_bufsize=78125 / nal_hrd=none / filler=0 / ip_ratio=1.40 / aq=1:1.00
    Default                     : Yes
    Forced                      : No
    Color range                 : Limited
    Color primaries             : BT.709
    Transfer characteristics    : BT.709
    Matrix coefficients         : BT.709
    Statistics Tags Issue       : mkvmerge v30.1.0 ('Forever And More') 64-bit 2019-01-13 00:27:56 / mkvmerge v30.1.0 ('Forever And More') 64-bit 2019-01-13 00:27:56 / UTC 2019-01-12T04:34:52Z
    FromStats_BitRate           : 3466360
    FromStats_Duration          : 02:13:04.977000000
    FromStats_FrameCount        : 191448
    FromStats_StreamSize        : 3459850690

    Audio #1
    ID                          : 2
    Format                      : AC-3
    Format/Info                 : Audio Coding 3
    Commercial name             : Dolby Digital
    Codec ID                    : A_AC3
    Duration                    : 2 h 13 min
    Bit rate mode               : Constant
    Bit rate                    : 448 kb/s
    Channel(s)                  : 6 channels
    Channel layout              : L R C LFE Ls Rs
    Sampling rate               : 48.0 kHz
    Frame rate                  : 31.250 FPS (1536 SPF)
    Bit depth                   : 16 bits
    Compression mode            : Lossy
    Delay relative to video     : -5 ms
    Stream size                 : 426 MiB (10%)
    Title                       : AC3_5.1_Bluray_Esp
    Language                    : Spanish
    Service kind                : Complete Main
    Default                     : Yes
    Forced                      : Yes
    Statistics Tags Issue       : mkvmerge v30.1.0 ('Forever And More') 64-bit 2019-01-13 00:27:56 / mkvmerge v30.1.0 ('Forever And More') 64-bit 2019-01-13 00:27:56 / UTC 2019-01-12T04:34:52Z
    FromStats_BitRate           : 448000
    FromStats_Duration          : 02:13:05.024000000
    FromStats_FrameCount        : 249532
    FromStats_StreamSize        : 447161344

    Audio #2
    ID                          : 3
    Format                      : AC-3
    Format/Info                 : Audio Coding 3
    Commercial name             : Dolby Digital
    Codec ID                    : A_AC3
    Duration                    : 2 h 13 min
    Bit rate mode               : Constant
    Bit rate                    : 448 kb/s
    Channel(s)                  : 6 channels
    Channel layout              : L R C LFE Ls Rs
    Sampling rate               : 48.0 kHz
    Frame rate                  : 31.250 FPS (1536 SPF)
    Bit depth                   : 16 bits
    Compression mode            : Lossy
    Stream size                 : 426 MiB (10%)
    Title                       : AC3_5.1_Bluray_Eng
    Language                    : English
    Service kind                : Complete Main
    Default                     : No
    Forced                      : No
    Statistics Tags Issue       : mkvmerge v30.1.0 ('Forever And More') 64-bit 2019-01-13 00:27:56 / mkvmerge v30.1.0 ('Forever And More') 64-bit 2019-01-13 00:27:56 / UTC 2019-01-12T04:34:52Z
    FromStats_BitRate           : 448000
    FromStats_Duration          : 02:13:04.960000000
    FromStats_FrameCount        : 249530
    FromStats_StreamSize        : 447157760

    Text #1
    ID                          : 4
    Format                      : UTF-8
    Codec ID                    : S_TEXT/UTF8
    Codec ID/Info               : UTF-8 Plain Text
    Title                       : Sub_Forzados
    Language                    : Spanish
    Default                     : Yes
    Forced                      : Yes
    Statistics Tags Issue       : mkvmerge v30.1.0 ('Forever And More') 64-bit 2019-01-13 00:27:56 / mkvmerge v30.1.0 ('Forever And More') 64-bit 2019-01-13 00:27:56 / UTC 2019-01-12T04:34:52Z
    FromStats_BitRate           : 0
    FromStats_Duration          : 01:47:34.537000000
    FromStats_FrameCount        : 6
    FromStats_StreamSize        : 135

    Text #2
    ID                          : 5
    Format                      : UTF-8
    Codec ID                    : S_TEXT/UTF8
    Codec ID/Info               : UTF-8 Plain Text
    Title                       : Sub_Esp
    Language                    : Spanish
    Default                     : No
    Forced                      : No
    Statistics Tags Issue       : mkvmerge v30.1.0 ('Forever And More') 64-bit 2019-01-13 00:27:56 / mkvmerge v30.1.0 ('Forever And More') 64-bit 2019-01-13 00:27:56 / UTC 2019-01-12T04:34:52Z
    FromStats_BitRate           : 60
    FromStats_Duration          : 02:05:25.150000000
    FromStats_FrameCount        : 1757
    FromStats_StreamSize        : 56596

    Menu
    00:00:00.000                : :00:00:00.000
    00:03:55.819                : :00:03:55.777
    00:08:18.081                : :00:08:18.081
    00:13:14.252                : :00:13:14.252
    00:19:32.129                : :00:19:32.129
    00:24:48.320                : :00:24:48.320
    00:29:34.314                : :00:29:34.314
    00:34:54.217                : :00:34:54.217
    00:40:09.532                : :00:40:09.532
    00:45:05.411                : :00:45:05.411
    00:50:09.215                : :00:50:09.215
    00:58:27.587                : :00:58:27.587
    01:03:58.376                : :01:03:58.376
    01:10:00.988                : :01:10:00.988
    01:14:51.278                : :01:14:51.278
    01:19:50.786                : :01:19:50.786
    01:27:09.599                : :01:27:09.599
    01:32:11.693                : :01:32:11.693
    01:37:36.225                : :01:37:36.225
    01:43:59.066                : :01:43:59.066
    01:49:39.156                : :01:49:39.156
    01:56:20.432                : :01:56:20.432
    01:58:00.156                : :01:58:00.156
    02:03:50.965                : :02:03:50.965

  • Peso: 4.06 GiB

Sinopsis

Descargar The Hate U Give (2018) 1080p Latino, Mega, Google Drive, Torrent. Criada en un barrio azotado por la pobreza, una niña de 16 años llamada Starr ahora asiste a una escuela suburbana de preparación. Después de que ella sea testigo de cómo un oficial de policía le dispara a su mejor amiga desarmada, se debate entre sus dos mundos muy diferentes mientras intenta decir su verdad.

Ficha técnica

  • Titulo original: The Hate U Give
  • Fecha de lanzamiento: 19-10-2018 (United States of America)
  • Director: George Tillman, Jr.
  • Género: Crimen, Drama, HD 1080p
  • Puntuación: 3.0 2 votos
  • Duración:
    2h 13m

Video trailer de la película

Enlaces de descarga

Rip de Bluray

Descargar The Hate U Give (2018) 1080p Latino




Aportes de DPeliculasHDmega la pass es:dpeliculashdmega.org Aportes de CinemaniaHD la pass es:cinemaniahdd.com
Guardado en : Crimen , Drama , HD 1080p

Películas relacionadas

  • The mule (2018) WEB-DL 1080p Latino

    2018
    The mule (2018) WEB-DL 1080p Latino

    0.0 1h 56m 2018

    A Earl Stone (Eastwood), un octogenario que está en quiebra, solo, y que se enfrenta a la ejecución...

    Director: Clint Eastwood

    Género: Crimen

    Actores: Victor Rasuk

  • Nace Una Estrella (2018) 4K UHD HDR Latino

    2018
    Nace Una Estrella (2018) 4K UHD HDR Latino

    0.0 2h 25m 2018

    Descargar Nace Una Estrella (2018) 4K UHD HDR Latino, Mega, Google Drive. Jackson Maine es una estrella...

    Director: Bradley Cooper

    Género: 4K HDR

    Actores: Willam Belli

  • FBI (2018) Temporada 1 1080p WEB-DL Latino

    2018
    FBI (2018) Temporada 1 1080p WEB-DL Latino

    0.0 0h 43m 2018

    Serie de TV (2018-). Drama vertiginoso sobre el funcionamiento interno de la oficina de Nueva York del...

    Director: Dick Wolf

    Género: Crimen

    Actores: Zeeko Zaki

  • El último Sharknado: Ya era hora (2018) 1080p Latino

    2018
    El último Sharknado: Ya era hora (2018) 1080p Latino

    3.0 1h 30m 2018

    Todo está perdido, ¿o no? Fin desbloquea el poder de viajar en el tiempo a través de los SHARKNADOS...

    Director: Anthony C. Ferrante

    Género: Acción

    Actores: Vivica A. Fox

Comentarios 0