×

¿Problemas para descargar con Mozilla, EDGE? Deshabilita la opción "Abrir vinculos en una pestaña nueva" tal como lo muestra ésta imagen.

The Hard Way (1991) REMUX 1080p Latino – CMHDD

106 vistas

Información de The Hard Way (1991) REMUX 1080p Latino – CMHDD

Datos de la película

  • Calidad: Full 1080p
  • Audio: Se especifica abajo de la Sinopsis
  • Subtitulos: Español Latino PGS
  • Resolución: 19201080p
  • Formato: MKV
  • Codec: H.264
  • Encoder: Dracarys
  • Mediainfo: Clic para Mostrar Datos Ver
  • Format                      : Matroska
    Format version              : Version 4
    File size                   : 23.8 GiB
    Duration                    : 1 h 50 min
    Overall bit rate mode       : Variable
    Overall bit rate            : 30.8 Mb/s
    Movie name                  : The Hard Way (1991) REMUX 1080p Latino - CMHDD
    Encoded date                : UTC 2023-10-23 02:36:55
    Writing application         : mkvmerge v47.0.0 ('Black Flag') 64-bit
    Writing library             : libebml v1.3.10 + libmatroska v1.5.2
    Cover                       : Yes
    Attachments                 : cover.jpg

    Video
    ID                          : 1
    ID in the original source m : 4113 (0x1011)
    Format                      : AVC
    Format/Info                 : Advanced Video Codec
    Format profile              : High@L4.1
    Format settings             : CABAC / 4 Ref Frames
    Format settings, CABAC      : Yes
    Format settings, Reference  : 4 frames
    Codec ID                    : V_MPEG4/ISO/AVC
    Duration                    : 1 h 50 min
    Bit rate mode               : Variable
    Bit rate                    : 27.9 Mb/s
    Maximum bit rate            : 31.0 Mb/s
    Width                       : 1 920 pixels
    Height                      : 1 080 pixels
    Display aspect ratio        : 16:9
    Frame rate mode             : Constant
    Frame rate                  : 23.976 (24000/1001) FPS
    Color space                 : YUV
    Chroma subsampling          : 4:2:0
    Bit depth                   : 8 bits
    Scan type                   : Progressive
    Bits/(Pixel*Frame)          : 0.561
    Stream size                 : 21.6 GiB (91%)
    Default                     : Yes
    Forced                      : No
    Original source medium      : Blu-ray

    Audio #1
    ID                          : 2
    ID in the original source m : 4352 (0x1100)
    Format                      : DTS XLL
    Format/Info                 : Digital Theater Systems
    Commercial name             : DTS-HD Master Audio
    Codec ID                    : A_DTS
    Duration                    : 1 h 50 min
    Bit rate mode               : Variable
    Bit rate                    : 2 135 kb/s
    Channel(s)                  : 2 channels
    Sampling rate               : 48.0 kHz
    Frame rate                  : 93.750 FPS (512 SPF)
    Bit depth                   : 24 bits
    Compression mode            : Lossless
    Stream size                 : 1.65 GiB (7%)
    Language                    : English
    Default                     : No
    Forced                      : No
    Original source medium      : Blu-ray

    Audio #2
    ID                          : 3
    ID in the original source m : 4353 (0x1101)
    Format                      : DTS
    Format/Info                 : Digital Theater Systems
    Codec ID                    : A_DTS
    Duration                    : 1 h 50 min
    Bit rate mode               : Constant
    Bit rate                    : 768 kb/s
    Channel(s)                  : 2 channels
    Channel layout              : Lt Rt
    Sampling rate               : 48.0 kHz
    Frame rate                  : 93.750 FPS (512 SPF)
    Bit depth                   : 24 bits
    Compression mode            : Lossy
    Stream size                 : 608 MiB (2%)
    Language                    : Spanish
    Default                     : Yes
    Forced                      : No
    Original source medium      : Blu-ray

    Text #1
    ID                          : 4
    ID in the original source m : 4609 (0x1201)
    Format                      : PGS
    Muxing mode                 : zlib
    Codec ID                    : S_HDMV/PGS
    Codec ID/Info               : Picture based subtitle format used on BDs/HD-DVDs
    Duration                    : 1 h 45 min
    Bit rate                    : 40.9 kb/s
    Frame rate                  : 0.449 FPS
    Count of elements           : 2856
    Stream size                 : 31.0 MiB (0%)
    Language                    : Spanish
    Default                     : No
    Forced                      : No
    Original source medium      : Blu-ray

    Text #2
    ID                          : 5
    ID in the original source m : 6144 (0x1800)
    Format                      : TEXTST
    Codec ID                    : S_HDMV/TEXTST
    Codec ID/Info               : Text based subtitle format used on BDs
    Duration                    : 1 h 45 min
    Bit rate                    : 1 b/s
    Frame rate                  : 0.004 FPS
    Count of elements           : 28
    Stream size                 : 1.33 KiB (0%)
    Language                    : Spanish
    Default                     : No
    Forced                      : No
    Original source medium      : Blu-ray

    Menu
    00:00:00.000                : en:Capítulo 01
    00:11:02.161                : en:Capítulo 02
    00:16:26.735                : en:Capítulo 03
    00:28:26.496                : en:Capítulo 04
    00:39:46.092                : en:Capítulo 05
    00:49:03.106                : en:Capítulo 06
    00:55:49.054                : en:Capítulo 07
    01:05:23.836                : en:Capítulo 08
    01:10:38.484                : en:Capítulo 09
    01:19:40.692                : en:Capítulo 10
    01:25:19.072                : en:Capítulo 11
    01:30:45.314                : en:Capítulo 12
    01:33:30.771                : en:Capítulo 13
    01:38:31.697                : en:Capítulo 14
    01:45:44.796                : en:Capítulo 15
    01:47:17.013                : en:Capítulo 16

     

  • Peso: 23.8 GiB

Sinopsis

Nick Lang es un famoso actor que necesita desesperadamente acabar con su imagen cinematográfica de niño bueno. Piensa que conseguirá un papel de valiente detective de homicidios si logra hacerlo en la vida real. Con ese objetivo, Lang se va de Hollywood a pasar unas semanas en las calles de Nueva York con el detective John Moss. Moss es un enérgico policía que se toma su trabajo muy en serio. Ahora le sigue la pista a un despiadado asesino en serie, y lo último que necesita es llevar a cuestas a un pesado. Pero su jefe, admirador de Nick Lang, insiste, y Moss tendrá que pensar cómo quitarse a Lang de encima mientras persigue al asesino.

 

 

Latino: DTS: 5.1  –  Ingles: DTS HD-MA 2.0

Ficha técnica

Video trailer de la película

Enlaces de descarga

Rip de Bluray

Descargar The Hard Way (1991) REMUX 1080p Latino – CMHDD




Aportes de DPeliculasHDmega la pass es:dpeliculashdmega.org Aportes de CinemaniaHD la pass es:cinemaniahdd.com Aportes recientes:cinemaniahdd.net
Guardado en : Acción , Comedia , Crimen

Películas relacionadas

descargar The Hard Way (1991) REMUX 1080p Latino – CMHDD Full 1080p 1080p gratis, The Hard Way (1991) REMUX 1080p Latino – CMHDD Full 1080p mega 1 link, The Hard Way (1991) REMUX 1080p Latino – CMHDD Full 1080p pelicula completa, descargar The Hard Way (1991) REMUX 1080p Latino – CMHDD Full 1080p gratis en mega.

The Hard Way (1991) REMUX 1080p Latino – CMHDD pelicula full hd, The Hard Way (1991) REMUX 1080p Latino – CMHDD mega latino, The Hard Way (1991) REMUX 1080p Latino – CMHDD 4k latino, The Hard Way (1991) REMUX 1080p Latino – CMHDD pelicula completa, The Hard Way (1991) REMUX 1080p Latino – CMHDD descargar gratis, descargar The Hard Way (1991) REMUX 1080p Latino – CMHDD pelicula latino, The Hard Way (1991) REMUX 1080p Latino – CMHDD 1 link mega, The Hard Way (1991) REMUX 1080p Latino – CMHDD 1 link google drive, The Hard Way (1991) REMUX 1080p Latino – CMHDD hd 1080p latino.
Comentarios 0