×

¿Problemas para descargar con Mozilla, EDGE? Deshabilita la opción "Abrir vinculos en una pestaña nueva" tal como lo muestra ésta imagen.

The Handmaids Tale (2021) Cuarta Temporada AMZN WEB-DL 1080p Latino

239 vistas

Información de The Handmaids Tale (2021) Cuarta Temporada AMZN WEB-DL 1080p Latino

Datos de la película

  • Calidad: 1080p
  • Audio: Español Latino AC3 2.0 WEB-DL - Ingles AC3 2.0 WEB-DL
  • Subtitulos: Español Latino SRT- FORZADOS SRT
  • Resolución: 1920x1080
  • Formato: MKV
  • Codec: H.264
  • Encoder: cinemaniahdd
  • Mediainfo: Clic para Mostrar Datos Ver
  • The Handmaids Tale T04E01 AMZN WEB-DL 1080p Latino [CNMNHDD].mkv
    Format                      : Matroska
    Format version              : Version 4
    File size                   : 3.56 GiB
    Duration                    : 56 min 18 s
    Overall bit rate            : 9 055 kb/s
    Movie name                  : The Handmaids Tale S04E01 - Pigs [1080p] - CinemaniaHDD.Net
    Encoded date                : UTC 2022-08-14 16:42:46
    Writing application         : mkvmerge v56.1.0 ('My Friend') 64-bit
    Writing library             : libebml v1.4.2 + libmatroska v1.6.4

    Video
    ID                          : 1
    Format                      : AVC
    Format/Info                 : Advanced Video Codec
    Format profile              : High@L4
    Format settings             : CABAC / 4 Ref Frames
    Format settings, CABAC      : Yes
    Format settings, Reference  : 4 frames
    Codec ID                    : V_MPEG4/ISO/AVC
    Duration                    : 56 min 18 s
    Bit rate mode               : Constant
    Bit rate                    : 8 221 kb/s
    Nominal bit rate            : 10 000 kb/s
    Width                       : 1 920 pixels
    Height                      : 1 080 pixels
    Display aspect ratio        : 16:9
    Frame rate mode             : Constant
    Frame rate                  : 23.976 (24000/1001) FPS
    Color space                 : YUV
    Chroma subsampling          : 4:2:0
    Bit depth                   : 8 bits
    Scan type                   : Progressive
    Bits/(Pixel*Frame)          : 0.165
    Stream size                 : 3.23 GiB (91%)
    Title                       : CinemaniaHDD
    Default                     : Yes
    Forced                      : No
    Color range                 : Limited
    Color primaries             : BT.709
    Transfer characteristics    : BT.709
    Matrix coefficients         : BT.709

    Audio #1
    ID                          : 2
    Format                      : AC-3
    Format/Info                 : Audio Coding 3
    Commercial name             : Dolby Digital
    Codec ID                    : A_AC3
    Duration                    : 56 min 18 s
    Bit rate mode               : Constant
    Bit rate                    : 384 kb/s
    Channel(s)                  : 2 channels
    Channel layout              : L R
    Sampling rate               : 48.0 kHz
    Frame rate                  : 31.250 FPS (1536 SPF)
    Compression mode            : Lossy
    Stream size                 : 155 MiB (4%)
    Title                       : Español latino [CinemaniaHDD]
    Language                    : Spanish
    Service kind                : Complete Main
    Default                     : Yes
    Forced                      : No

    Audio #2
    ID                          : 3
    Format                      : E-AC-3
    Format/Info                 : Enhanced AC-3
    Commercial name             : Dolby Digital Plus
    Codec ID                    : A_EAC3
    Duration                    : 56 min 18 s
    Bit rate mode               : Constant
    Bit rate                    : 224 kb/s
    Channel(s)                  : 2 channels
    Channel layout              : L R
    Sampling rate               : 48.0 kHz
    Frame rate                  : 31.250 FPS (1536 SPF)
    Compression mode            : Lossy
    Stream size                 : 90.2 MiB (2%)
    Title                       : Español latino / E-AC3 [CinemaniaHDD]
    Language                    : Spanish
    Service kind                : Complete Main
    Default                     : No
    Forced                      : No

    Audio #3
    ID                          : 4
    Format                      : E-AC-3
    Format/Info                 : Enhanced AC-3
    Commercial name             : Dolby Digital Plus
    Codec ID                    : A_EAC3
    Duration                    : 56 min 18 s
    Bit rate mode               : Constant
    Bit rate                    : 224 kb/s
    Channel(s)                  : 2 channels
    Channel layout              : L R
    Sampling rate               : 48.0 kHz
    Frame rate                  : 31.250 FPS (1536 SPF)
    Compression mode            : Lossy
    Stream size                 : 90.2 MiB (2%)
    Title                       : Inglés [CinemaniaHDD]
    Language                    : English
    Service kind                : Complete Main
    Default                     : No
    Forced                      : No

    Text #1
    ID                          : 5
    Format                      : UTF-8
    Codec ID                    : S_TEXT/UTF8
    Codec ID/Info               : UTF-8 Plain Text
    Duration                    : 6 min 38 s
    Bit rate                    : 0 b/s
    Count of elements           : 2
    Stream size                 : 41.0 Bytes (0%)
    Title                       : Forzados [CinemaniaHDD]
    Language                    : Spanish
    Default                     : Yes
    Forced                      : Yes

    Text #2
    ID                          : 6
    Format                      : UTF-8
    Codec ID                    : S_TEXT/UTF8
    Codec ID/Info               : UTF-8 Plain Text
    Duration                    : 54 min 5 s
    Bit rate                    : 36 b/s
    Count of elements           : 576
    Stream size                 : 14.5 KiB (0%)
    Title                       : Español latino [CinemaniaHDD]
    Language                    : Spanish
    Default                     : No
    Forced                      : No

     

  • Peso: 3.56 GiB Aprox ---- 30 GiB in 10 Chapters.

Sinopsis

En la cuarta temporada de «The Handmaid’s Tale», June (Elisabeth Moss) contraataca a Gilead como una feroz líder rebelde, pero los riesgos que toma le traen nuevos y peligrosos desafíos, y su búsqueda de justicia y venganza amenaza con consumirla.

Ficha técnica

Video trailer de la película

Enlaces de descarga

Rip de Bluray

Descargar The Handmaids Tale (2021) Cuarta Temporada AMZN WEB-DL 1080p Latino




Aportes de DPeliculasHDmega la pass es:dpeliculashdmega.org Aportes de CinemaniaHD la pass es:cinemaniahdd.com
Guardado en : Drama , Sci-Fi & Fantasy , Series

Películas relacionadas

descargar The Handmaids Tale (2021) Cuarta Temporada AMZN WEB-DL 1080p Latino 1080p 1080p gratis, The Handmaids Tale (2021) Cuarta Temporada AMZN WEB-DL 1080p Latino 1080p mega 1 link, The Handmaids Tale (2021) Cuarta Temporada AMZN WEB-DL 1080p Latino 1080p serie completa, descargar The Handmaids Tale (2021) Cuarta Temporada AMZN WEB-DL 1080p Latino 1080p gratis en mega.

The Handmaids Tale (2021) Cuarta Temporada AMZN WEB-DL 1080p Latino pelicula full hd, The Handmaids Tale (2021) Cuarta Temporada AMZN WEB-DL 1080p Latino mega latino, The Handmaids Tale (2021) Cuarta Temporada AMZN WEB-DL 1080p Latino 4k latino, The Handmaids Tale (2021) Cuarta Temporada AMZN WEB-DL 1080p Latino pelicula completa, The Handmaids Tale (2021) Cuarta Temporada AMZN WEB-DL 1080p Latino descargar gratis, descargar The Handmaids Tale (2021) Cuarta Temporada AMZN WEB-DL 1080p Latino pelicula latino, The Handmaids Tale (2021) Cuarta Temporada AMZN WEB-DL 1080p Latino 1 link mega, The Handmaids Tale (2021) Cuarta Temporada AMZN WEB-DL 1080p Latino 1 link google drive, The Handmaids Tale (2021) Cuarta Temporada AMZN WEB-DL 1080p Latino hd 1080p latino.
Comentarios 0