×

¿Problemas para descargar con Mozilla, EDGE? Deshabilita la opción "Abrir vinculos en una pestaña nueva" tal como lo muestra ésta imagen.

The Handmaids Tale (2019) Tercera Temporada WEB-DL 1080p Latino

127 vistas

Información de The Handmaids Tale (2019) Tercera Temporada WEB-DL 1080p Latino

Datos de la película

  • Calidad: 1080p
  • Audio: Español Latino AC3 5.1 WEB-DL - Ingles AC3 5.1 WEB-DL
  • Subtitulos: Español Latino SRT - Ingles SRT
  • Resolución: 1920x1080
  • Formato: MKV
  • Codec: H.264
  • Encoder: cinemaniahdd
  • Mediainfo: Clic para Mostrar Datos Ver
  • The Handmaids Tale T03E01 WEB-DL 1080p Latino [CNMNHDD].mkv
    Format                      : Matroska
    Format version              : Version 4
    File size                   : 2.96 GiB
    Duration                    : 49 min 59 s
    Overall bit rate            : 8 476 kb/s
    Movie name                  : The Handmaids Tale S03E301 - Night [1080p] - CinemaniaHDD.Net
    Encoded date                : UTC 2022-08-14 16:20:40
    Writing application         : mkvmerge v56.1.0 ('My Friend') 64-bit
    Writing library             : libebml v1.4.2 + libmatroska v1.6.4

    Video
    ID                          : 1
    Format                      : AVC
    Format/Info                 : Advanced Video Codec
    Format profile              : High@L4
    Format settings             : CABAC / 4 Ref Frames
    Format settings, CABAC      : Yes
    Format settings, Reference  : 4 frames
    Codec ID                    : V_MPEG4/ISO/AVC
    Duration                    : 49 min 59 s
    Bit rate                    : 6 553 kb/s
    Width                       : 1 920 pixels
    Height                      : 960 pixels
    Display aspect ratio        : 2.000
    Frame rate mode             : Constant
    Frame rate                  : 23.976 (24000/1001) FPS
    Color space                 : YUV
    Chroma subsampling          : 4:2:0
    Bit depth                   : 8 bits
    Scan type                   : Progressive
    Bits/(Pixel*Frame)          : 0.148
    Stream size                 : 2.29 GiB (77%)
    Title                       : CinemaniaHDD
    Default                     : Yes
    Forced                      : No
    Color range                 : Limited
    Color primaries             : BT.709
    Transfer characteristics    : BT.709
    Matrix coefficients         : BT.709

    Audio #1
    ID                          : 2
    Format                      : AC-3
    Format/Info                 : Audio Coding 3
    Commercial name             : Dolby Digital
    Codec ID                    : A_AC3
    Duration                    : 49 min 59 s
    Bit rate mode               : Constant
    Bit rate                    : 640 kb/s
    Channel(s)                  : 6 channels
    Channel layout              : L R C LFE Ls Rs
    Sampling rate               : 48.0 kHz
    Frame rate                  : 31.250 FPS (1536 SPF)
    Compression mode            : Lossy
    Stream size                 : 229 MiB (8%)
    Title                       : Español latino [CinemaniaHDD]
    Language                    : Spanish
    Service kind                : Complete Main
    Default                     : Yes
    Forced                      : No

    Audio #2
    ID                          : 3
    Format                      : E-AC-3
    Format/Info                 : Enhanced AC-3
    Commercial name             : Dolby Digital Plus
    Codec ID                    : A_EAC3
    Duration                    : 49 min 59 s
    Bit rate mode               : Constant
    Bit rate                    : 640 kb/s
    Channel(s)                  : 6 channels
    Channel layout              : L R C LFE Ls Rs
    Sampling rate               : 48.0 kHz
    Frame rate                  : 31.250 FPS (1536 SPF)
    Compression mode            : Lossy
    Stream size                 : 229 MiB (8%)
    Title                       : Español latino / E-AC3 [CinemaniaHDD]
    Language                    : Spanish
    Service kind                : Complete Main
    Default                     : No
    Forced                      : No

    Audio #3
    ID                          : 4
    Format                      : E-AC-3
    Format/Info                 : Enhanced AC-3
    Commercial name             : Dolby Digital Plus
    Codec ID                    : A_EAC3
    Duration                    : 49 min 59 s
    Bit rate mode               : Constant
    Bit rate                    : 640 kb/s
    Channel(s)                  : 6 channels
    Channel layout              : L R C LFE Ls Rs
    Sampling rate               : 48.0 kHz
    Frame rate                  : 31.250 FPS (1536 SPF)
    Compression mode            : Lossy
    Stream size                 : 229 MiB (8%)
    Title                       : Inglés [CinemaniaHDD]
    Language                    : English
    Service kind                : Complete Main
    Default                     : No
    Forced                      : No

    Text #1
    ID                          : 5
    Format                      : UTF-8
    Codec ID                    : S_TEXT/UTF8
    Codec ID/Info               : UTF-8 Plain Text
    Duration                    : 1 s 43 ms
    Bit rate                    : 153 b/s
    Count of elements           : 1
    Stream size                 : 20.0 Bytes (0%)
    Title                       : Forzados [CinemaniaHDD]
    Language                    : Spanish
    Default                     : Yes
    Forced                      : Yes

    Text #2
    ID                          : 6
    Format                      : UTF-8
    Codec ID                    : S_TEXT/UTF8
    Codec ID/Info               : UTF-8 Plain Text
    Duration                    : 48 min 15 s
    Bit rate                    : 26 b/s
    Count of elements           : 345
    Stream size                 : 9.28 KiB (0%)
    Title                       : Español latino [CinemaniaHDD]
    Language                    : Spanish
    Default                     : No
    Forced                      : No

    Text #3
    ID                          : 7
    Format                      : UTF-8
    Codec ID                    : S_TEXT/UTF8
    Codec ID/Info               : UTF-8 Plain Text
    Duration                    : 48 min 19 s
    Bit rate                    : 28 b/s
    Count of elements           : 376
    Stream size                 : 10.2 KiB (0%)
    Title                       : Inglés [CinemaniaHDD]
    Language                    : English
    Default                     : No
    Forced                      : No

    Menu
    00:00:00.000                : Previously On
    00:02:43.000                : Studio Logo
    00:02:56.000                : Scene 3
    00:06:39.000                : Title Sequence
    00:06:43.000                : Scene 5
    00:13:49.000                : Scene 6
    00:27:52.000                : Scene 7
    00:37:58.000                : Scene 8
    00:48:26.000                : End Credits

     

  • Peso: 2.96 GiB Aprox ---- 41 GiB in 13 Chapters.

Sinopsis

La tercera temporada de «The Handmaid’s Tale», ganadora del premio Emmy®, se basa en la resistencia de June al régimen de Gilead, en el que se encuentra una vez más después de decidir no huir a Canadá con su bebé al final de la temporada 2.

Ficha técnica

Video trailer de la película

Enlaces de descarga

Rip de Bluray

Descargar The Handmaids Tale (2019) Tercera Temporada WEB-DL 1080p Latino




Aportes de DPeliculasHDmega la pass es:dpeliculashdmega.org Aportes de CinemaniaHD la pass es:cinemaniahdd.com
Guardado en : Drama , Sci-Fi & Fantasy , Series

Películas relacionadas

descargar The Handmaids Tale (2019) Tercera Temporada WEB-DL 1080p Latino 1080p 1080p gratis, The Handmaids Tale (2019) Tercera Temporada WEB-DL 1080p Latino 1080p mega 1 link, The Handmaids Tale (2019) Tercera Temporada WEB-DL 1080p Latino 1080p serie completa, descargar The Handmaids Tale (2019) Tercera Temporada WEB-DL 1080p Latino 1080p gratis en mega.

The Handmaids Tale (2019) Tercera Temporada WEB-DL 1080p Latino pelicula full hd, The Handmaids Tale (2019) Tercera Temporada WEB-DL 1080p Latino mega latino, The Handmaids Tale (2019) Tercera Temporada WEB-DL 1080p Latino 4k latino, The Handmaids Tale (2019) Tercera Temporada WEB-DL 1080p Latino pelicula completa, The Handmaids Tale (2019) Tercera Temporada WEB-DL 1080p Latino descargar gratis, descargar The Handmaids Tale (2019) Tercera Temporada WEB-DL 1080p Latino pelicula latino, The Handmaids Tale (2019) Tercera Temporada WEB-DL 1080p Latino 1 link mega, The Handmaids Tale (2019) Tercera Temporada WEB-DL 1080p Latino 1 link google drive, The Handmaids Tale (2019) Tercera Temporada WEB-DL 1080p Latino hd 1080p latino.
Comentarios 0