×

¿Problemas para descargar con Mozilla, EDGE? Deshabilita la opción "Abrir vinculos en una pestaña nueva" tal como lo muestra ésta imagen.

The Guilty (2018) Full HD PLACEBO 1080p Latino

343 vistas

Información de The Guilty (2018) Full HD PLACEBO 1080p Latino

Datos de la película

  • Calidad: Full 1080p
  • Audio: Se especifica abajo de la Sinopsis
  • Subtitulos: Español Latino PGS - Ingles PGS
  • Resolución: 1920x1080
  • Formato: MKV
  • Codec: H.264
  • Encoder: cinemaniahdd
  • Mediainfo: Clic para Mostrar Datos Ver
  • The Guilty (2018) PLACEBO 1080p Latino.mkv
    Format                      : Matroska
    Format version              : Version 4
    File size                   : 2.64 GiB
    Duration                    : 1 h 28 min
    Overall bit rate            : 4 275 kb/s
    Movie name                  : The Guilty (2018)
    Encoded date                : UTC 2020-06-09 01:52:08
    Writing application         : mkvmerge v46.0.0 ('No Deeper Escape') 64-bit
    Writing library             : libebml v1.3.10 + libmatroska v1.5.2

    Video
    ID                          : 1
    Format                      : AVC
    Format/Info                 : Advanced Video Codec
    Format profile              : High@L4.1
    Format settings             : CABAC / 4 Ref Frames
    Format settings, CABAC      : Yes
    Format settings, Reference  : 4 frames
    Codec ID                    : V_MPEG4/ISO/AVC
    Duration                    : 1 h 28 min
    Bit rate                    : 2 454 kb/s
    Width                       : 1 920 pixels
    Height                      : 1 080 pixels
    Display aspect ratio        : 16:9
    Frame rate mode             : Constant
    Frame rate                  : 23.976 (24000/1001) FPS
    Color space                 : YUV
    Chroma subsampling          : 4:2:0
    Bit depth                   : 8 bits
    Scan type                   : Progressive
    Bits/(Pixel*Frame)          : 0.049
    Stream size                 : 1.52 GiB (57%)
    Writing library             : x264 core 157 r2935 545de2f
    Encoding settings           : cabac=1 / ref=4 / deblock=1:0:0 / analyse=0x3:0x133 / me=tesa / subme=11 / psy=1 / psy_rd=1.00:0.00 / mixed_ref=1 / me_range=24 / chroma_me=1 / trellis=2 / 8x8dct=1 / cqm=0 / deadzone=21,11 / fast_pskip=0 / chroma_qp_offset=-2 / threads=24 / lookahead_threads=6 / sliced_threads=0 / nr=0 / decimate=1 / interlaced=0 / bluray_compat=0 / constrained_intra=0 / bframes=16 / b_pyramid=2 / b_adapt=2 / b_bias=0 / direct=3 / weightb=1 / open_gop=0 / weightp=2 / keyint=240 / keyint_min=24 / scenecut=40 / intra_refresh=0 / rc_lookahead=60 / rc=crf / mbtree=1 / crf=20.0 / qcomp=0.60 / qpmin=0 / qpmax=69 / qpstep=4 / vbv_maxrate=62500 / vbv_bufsize=78125 / crf_max=0.0 / nal_hrd=none / filler=0 / ip_ratio=1.40 / aq=1:1.00
    Default                     : Yes
    Forced                      : No
    Color range                 : Limited
    Color primaries             : BT.709
    Transfer characteristics    : BT.709
    Matrix coefficients         : BT.709

    Audio #1
    ID                          : 2
    Format                      : AC-3
    Format/Info                 : Audio Coding 3
    Commercial name             : Dolby Digital
    Codec ID                    : A_AC3
    Duration                    : 1 h 28 min
    Bit rate mode               : Constant
    Bit rate                    : 256 kb/s
    Channel(s)                  : 2 channels
    Channel layout              : L R
    Sampling rate               : 48.0 kHz
    Frame rate                  : 31.250 FPS (1536 SPF)
    Compression mode            : Lossy
    Delay relative to video     : -5 ms
    Stream size                 : 162 MiB (6%)
    Title                       : Español latino [CinemaniaHDD]
    Language                    : Spanish
    Service kind                : Complete Main
    Default                     : Yes
    Forced                      : No

    Audio #2
    ID                          : 3
    Format                      : DTS
    Format/Info                 : Digital Theater Systems
    Codec ID                    : A_DTS
    Duration                    : 1 h 28 min
    Bit rate mode               : Constant
    Bit rate                    : 1 509 kb/s
    Channel(s)                  : 6 channels
    Channel layout              : C L R Ls Rs LFE
    Sampling rate               : 48.0 kHz
    Frame rate                  : 93.750 FPS (512 SPF)
    Bit depth                   : 24 bits
    Compression mode            : Lossy
    Delay relative to video     : -5 ms
    Stream size                 : 954 MiB (35%)
    Title                       : Danes - Core [CinemaniaHDD]
    Language                    : Danish
    Default                     : No
    Forced                      : No

    Text #1
    ID                          : 4
    Format                      : UTF-8
    Codec ID                    : S_TEXT/UTF8
    Codec ID/Info               : UTF-8 Plain Text
    Duration                    : 19 min 18 s
    Bit rate                    : 0 b/s
    Count of elements           : 2
    Stream size                 : 45.0 Bytes (0%)
    Title                       : Forzados [CinemaniaHDD]
    Language                    : Spanish
    Default                     : Yes
    Forced                      : Yes

    Text #2
    ID                          : 5
    Format                      : UTF-8
    Codec ID                    : S_TEXT/UTF8
    Codec ID/Info               : UTF-8 Plain Text
    Duration                    : 1 h 24 min
    Bit rate                    : 52 b/s
    Count of elements           : 1046
    Stream size                 : 32.2 KiB (0%)
    Title                       : Español latino [CinemaniaHDD]
    Language                    : Spanish
    Default                     : No
    Forced                      : No

    Text #3
    ID                          : 6
    Format                      : PGS
    Muxing mode                 : zlib
    Codec ID                    : S_HDMV/PGS
    Codec ID/Info               : Picture based subtitle format used on BDs/HD-DVDs
    Duration                    : 1 h 27 min
    Bit rate                    : 49.1 kb/s
    Count of elements           : 2050
    Stream size                 : 30.7 MiB (1%)
    Title                       : Español latino [CinemaniaHDD]
    Language                    : Spanish
    Default                     : No
    Forced                      : No

    Text #4
    ID                          : 7
    Format                      : PGS
    Muxing mode                 : zlib
    Codec ID                    : S_HDMV/PGS
    Codec ID/Info               : Picture based subtitle format used on BDs/HD-DVDs
    Duration                    : 1 h 27 min
    Bit rate                    : 54.9 kb/s
    Count of elements           : 2400
    Stream size                 : 34.5 MiB (1%)
    Title                       : Ingles [CinemaniaHDD]
    Language                    : English
    Default                     : No
    Forced                      : No

    Menu
    00:00:00.000                : en:Chapter 1
    00:08:57.537                : en:Chapter 2
    00:15:32.932                : en:Chapter 3
    00:25:54.553                : en:Chapter 4
    00:33:17.996                : en:Chapter 5
    00:37:52.270                : en:Chapter 6
    00:41:37.495                : en:Chapter 7
    00:47:04.822                : en:Chapter 8
    00:53:36.213                : en:Chapter 9
    01:03:43.820                : en:Chapter 10
    01:15:28.524                : en:Chapter 11
    01:25:18.113                : en:Chapter 12

     

  • Peso: 2.64 GiB

Sinopsis

Asger Holm, un exoficial de policía, ha sido suspendido de sus funciones y relegado a operador del servicio de emergencias. Durante su rutinario turno de noche, recibe la extraña llamada de una mujer aterrada. A pesar de su reacción de sorpresa, Asger se dará cuenta de que la mujer al otro lado del teléfono ha sido secuestrada, y es entonces cuando comenzará la búsqueda. Recluido en su mesa en la centralita de emergencias, Asgar tendrá que localizar y ayudar a la mujer en peligro con la ayuda de sus compañeros en todo el país. Conforme avanza el reloj y pasan los segundos, Asgar tendrá que enfrentarse no sólo a la precipitación de los acontecimientos relacionados con el crimen, sino también a sus propios demonios personales.

Español Latino AC3 2.0 – Danes DTS 5.1 Bluray

Ficha técnica

Video trailer de la película

Enlaces de descarga

Rip de Bluray

Descargar The Guilty (2018) Full HD PLACEBO 1080p Latino




Aportes de DPeliculasHDmega la pass es:dpeliculashdmega.org Aportes de CinemaniaHD la pass es:cinemaniahdd.com

Películas relacionadas

descargar The Guilty (2018) Full HD PLACEBO 1080p Latino Full 1080p 1080p gratis, The Guilty (2018) Full HD PLACEBO 1080p Latino Full 1080p mega 1 link, The Guilty (2018) Full HD PLACEBO 1080p Latino Full 1080p pelicula completa, descargar The Guilty (2018) Full HD PLACEBO 1080p Latino Full 1080p gratis en mega.

The Guilty (2018) Full HD PLACEBO 1080p Latino pelicula full hd, The Guilty (2018) Full HD PLACEBO 1080p Latino mega latino, The Guilty (2018) Full HD PLACEBO 1080p Latino 4k latino, The Guilty (2018) Full HD PLACEBO 1080p Latino pelicula completa, The Guilty (2018) Full HD PLACEBO 1080p Latino descargar gratis, descargar The Guilty (2018) Full HD PLACEBO 1080p Latino pelicula latino, The Guilty (2018) Full HD PLACEBO 1080p Latino 1 link mega, The Guilty (2018) Full HD PLACEBO 1080p Latino 1 link google drive, The Guilty (2018) Full HD PLACEBO 1080p Latino hd 1080p latino.
Comentarios 0