×

¿Problemas para descargar con Mozilla, EDGE? Deshabilita la opción "Abrir vinculos en una pestaña nueva" tal como lo muestra ésta imagen.

El Grinch (2018) 1080p Latino

2.899 vistas

Información de El Grinch (2018) 1080p Latino

Datos de la película

  • Calidad: 1080p
  • Audio: Español Latino AC3 5.1 BLURAY - Ingles AC3 5.1 BLURAY
  • Subtitulos: Español Latino SRT - Ingles SRT
  • Resolución: 1920x808p
  • Formato: MKV
  • Codec: H.264
  • Encoder: CinefiloCool
  • Mediainfo: Clic para Mostrar Datos Ver
  • El Grinch (2018) 1080p Latino.mkv
    Format                      : Matroska
    Format version              : Version 4
    File size                   : 4.49 GiB
    Duration                    : 1 h 25 min
    Overall bit rate            : 7 485 kb/s
    Movie name                  : CinemaniaHDD.Net
    Encoded date                : UTC 2019-01-25 04:53:38
    Writing application         : mkvmerge v30.1.0 ('Forever And More') 64-bit
    Writing library             : libebml v1.3.6 + libmatroska v1.4.9

    Video
    ID                          : 1
    Format                      : AVC
    Format/Info                 : Advanced Video Codec
    Format profile              : High@L4.1
    Format settings             : CABAC / 5 Ref Frames
    Format settings, CABAC      : Yes
    Format settings, ReFrames   : 5 frames
    Codec ID                    : V_MPEG4/ISO/AVC
    Duration                    : 1 h 25 min
    Bit rate                    : 6 651 kb/s
    Width                       : 1 920 pixels
    Height                      : 808 pixels
    Display aspect ratio        : 2.40:1
    Frame rate mode             : Constant
    Frame rate                  : 23.976 (24000/1001) FPS
    Color space                 : YUV
    Chroma subsampling          : 4:2:0
    Bit depth                   : 8 bits
    Scan type                   : Progressive
    Bits/(Pixel*Frame)          : 0.179
    Stream size                 : 3.99 GiB (89%)
    Title                       : HD1080p [Bluray]
    Writing library             : x264 core 157 r2935 545de2f
    Encoding settings           : cabac=1 / ref=5 / deblock=1:1:1 / analyse=0x3:0x113 / me=umh / subme=8 / psy=1 / psy_rd=0.40:0.00 / mixed_ref=1 / me_range=16 / chroma_me=1 / trellis=1 / 8x8dct=1 / cqm=0 / deadzone=21,11 / fast_pskip=1 / chroma_qp_offset=-2 / threads=24 / lookahead_threads=4 / sliced_threads=0 / nr=0 / decimate=1 / interlaced=0 / bluray_compat=0 / constrained_intra=0 / bframes=5 / b_pyramid=2 / b_adapt=1 / b_bias=0 / direct=3 / weightb=1 / open_gop=0 / weightp=2 / keyint=250 / keyint_min=23 / scenecut=40 / intra_refresh=0 / rc_lookahead=50 / rc=2pass / mbtree=1 / bitrate=6651 / ratetol=1.0 / qcomp=0.60 / qpmin=0 / qpmax=69 / qpstep=4 / cplxblur=20.0 / qblur=0.5 / ip_ratio=1.40 / aq=1:0.60
    Default                     : Yes
    Forced                      : No

    Audio #1
    ID                          : 2
    Format                      : AC-3
    Format/Info                 : Audio Coding 3
    Commercial name             : Dolby Digital
    Codec ID                    : A_AC3
    Duration                    : 1 h 25 min
    Bit rate mode               : Constant
    Bit rate                    : 384 kb/s
    Channel(s)                  : 6 channels
    Channel layout              : L R C LFE Ls Rs
    Sampling rate               : 48.0 kHz
    Frame rate                  : 31.250 FPS (1536 SPF)
    Bit depth                   : 16 bits
    Compression mode            : Lossy
    Stream size                 : 236 MiB (5%)
    Title                       : AC3_5.1_Esp
    Language                    : Spanish
    Service kind                : Complete Main
    Default                     : Yes
    Forced                      : Yes

    Audio #2
    ID                          : 3
    Format                      : AC-3
    Format/Info                 : Audio Coding 3
    Commercial name             : Dolby Digital
    Codec ID                    : A_AC3
    Duration                    : 1 h 25 min
    Bit rate mode               : Constant
    Bit rate                    : 448 kb/s
    Channel(s)                  : 6 channels
    Channel layout              : L R C LFE Ls Rs
    Sampling rate               : 48.0 kHz
    Frame rate                  : 31.250 FPS (1536 SPF)
    Bit depth                   : 16 bits
    Compression mode            : Lossy
    Stream size                 : 275 MiB (6%)
    Title                       : AC3_5.1_Bluray_Eng
    Language                    : English
    Service kind                : Complete Main
    Default                     : No
    Forced                      : No

    Text #1
    ID                          : 4
    Format                      : UTF-8
    Codec ID                    : S_TEXT/UTF8
    Codec ID/Info               : UTF-8 Plain Text
    Duration                    : 59 min 54 s
    Bit rate                    : 0 b/s
    Count of elements           : 15
    Stream size                 : 295 Bytes (0%)
    Title                       : Sub_Forzados
    Language                    : Spanish
    Default                     : Yes
    Forced                      : Yes

    Text #2
    ID                          : 5
    Format                      : UTF-8
    Codec ID                    : S_TEXT/UTF8
    Codec ID/Info               : UTF-8 Plain Text
    Duration                    : 1 h 16 min
    Bit rate                    : 52 b/s
    Count of elements           : 1044
    Stream size                 : 29.4 KiB (0%)
    Title                       : Sub_Esp
    Language                    : Spanish
    Default                     : No
    Forced                      : No

    Text #3
    ID                          : 6
    Format                      : UTF-8
    Codec ID                    : S_TEXT/UTF8
    Codec ID/Info               : UTF-8 Plain Text
    Duration                    : 1 h 25 min
    Bit rate                    : 77 b/s
    Count of elements           : 1765
    Stream size                 : 48.4 KiB (0%)
    Title                       : Sub_Eng
    Language                    : English
    Default                     : No
    Forced                      : No

  • Peso: 4.49 GiB

Sinopsis

Descargar El Grinch (2018) 1080p Latino. Cada año, en Navidad, los lugareños perturban su pacífica soledad con celebraciones cada vez más desmesuradas, luminosas y ruidosas. Cuando los Quién declaran que ese año van a preparar una Navidad el triple de grande, el Grinch se da cuenta de que solo hay un modo de recuperar algo de paz y silencio: robar la Navidad. Para ello, decide hacerse pasar por Santa Claus en Nochebuena, haciéndose con un reno muy peculiar para tirar de su trineo. Mientras tanto, en Villa Quién, una dulce niña llamada Cindy-Lou, desbordante de espíritu navideño, planea con sus amigos atrapar a Santa Claus durante su visita en Nochebuena para darle las gracias por ayudar a su trabajadora madre. Sin embargo, a medida que se acerca la noche mágica, sus buenas intenciones amenazan con chocar con las del Grinch, mucho más perversas. ¿Logrará Cindy-Lou cumplir su deseo de conocer a Santa Claus? ¿Conseguirá el Grinch poner fin al jolgorio navideño de los Quién de una vez por todas?

Ficha técnica

Video trailer de la película

Enlaces de descarga

Rip de Bluray

Descargar El Grinch (2018) 1080p Latino




Aportes de DPeliculasHDmega la pass es:dpeliculashdmega.org Aportes de CinemaniaHD la pass es:cinemaniahdd.com

Películas relacionadas

descargar El Grinch (2018) 1080p Latino 1080p 1080p gratis, El Grinch (2018) 1080p Latino 1080p mega 1 link, El Grinch (2018) 1080p Latino 1080p pelicula completa, descargar El Grinch (2018) 1080p Latino 1080p gratis en mega.

El Grinch (2018) 1080p Latino pelicula full hd, El Grinch (2018) 1080p Latino mega latino, El Grinch (2018) 1080p Latino 4k latino, El Grinch (2018) 1080p Latino pelicula completa, El Grinch (2018) 1080p Latino descargar gratis, descargar El Grinch (2018) 1080p Latino pelicula latino, El Grinch (2018) 1080p Latino 1 link mega, El Grinch (2018) 1080p Latino 1 link google drive, El Grinch (2018) 1080p Latino hd 1080p latino.
Comentarios 0