×

¿Problemas para descargar con Mozilla, EDGE? Deshabilita la opción "Abrir vinculos en una pestaña nueva" tal como lo muestra ésta imagen.

Milagros Inesperados (1999) REMUX 1080p Latino-CMHDD

65 vistas

Información de Milagros Inesperados (1999) REMUX 1080p Latino-CMHDD

Datos de la película

  • Calidad: Full 1080p
  • Audio: Se especifica abajo de la Sinopsis
  • Subtitulos: Español Latino PGS - Ingles PGS
  • Resolución: 1920x1080p
  • Formato: MKV
  • Codec: H.264
  • Encoder: CinefiloCool
  • Mediainfo: Clic para Mostrar Datos Ver
  • The.Green.Mile.1999.REPACK.Bluray.REMUX.1080p.VC-1.Latino-CC@CMHDD.mkv
    Format                      : Matroska
    Format version              : Version 4
    File size                   : 26.0 GiB
    Duration                    : 3 h 8 min
    Overall bit rate mode       : Variable
    Overall bit rate            : 19.7 Mb/s
    Movie name                  : The Green Mile (1999) CinemaniaHDD.Net
    Encoded date                : UTC 2024-06-10 05:08:54
    Writing application         : mkvmerge v56.1.0 ('My Friend') 64-bit
    Writing library             : libebml v1.4.2 + libmatroska v1.6.4
    Cover                       : Yes
    Attachments                 : cover.jpg / CINEMANIAHD.png

    Video
    ID                          : 1
    ID in the original source m : 4113 (0x1011)
    Format                      : VC-1
    Format profile              : Advanced@L3
    Codec ID                    : V_MS/VFW/FOURCC / WVC1
    Codec ID/Hint               : Microsoft
    Duration                    : 3 h 8 min
    Bit rate                    : 16.9 Mb/s
    Width                       : 1 920 pixels
    Height                      : 1 080 pixels
    Display aspect ratio        : 16:9
    Frame rate mode             : Constant
    Frame rate                  : 23.976 (24000/1001) FPS
    Color space                 : YUV
    Chroma subsampling          : 4:2:0
    Bit depth                   : 8 bits
    Scan type                   : Progressive
    Compression mode            : Lossy
    Bits/(Pixel*Frame)          : 0.339
    Stream size                 : 22.2 GiB (86%)
    Title                       : REMUX HD1080p [CinemaniaHDD]
    Default                     : Yes
    Forced                      : Yes
    Original source medium      : Blu-ray

    Audio #1
    ID                          : 2
    Format                      : AC-3
    Format/Info                 : Audio Coding 3
    Commercial name             : Dolby Digital
    Codec ID                    : A_AC3
    Duration                    : 3 h 8 min
    Bit rate mode               : Constant
    Bit rate                    : 640 kb/s
    Channel(s)                  : 6 channels
    Channel layout              : L R C LFE Ls Rs
    Sampling rate               : 48.0 kHz
    Frame rate                  : 31.250 FPS (1536 SPF)
    Compression mode            : Lossy
    Stream size                 : 863 MiB (3%)
    Title                       : Español Latino [CinemaniaHDD]
    Language                    : Spanish
    Service kind                : Complete Main
    Default                     : Yes
    Forced                      : Yes

    Audio #2
    ID                          : 3
    ID in the original source m : 4352 (0x1100)
    Format                      : MLP FBA
    Format/Info                 : Meridian Lossless Packing FBA
    Commercial name             : Dolby TrueHD
    Codec ID                    : A_TRUEHD
    Duration                    : 3 h 8 min
    Bit rate mode               : Variable
    Bit rate                    : 1 478 kb/s
    Maximum bit rate            : 3 267 kb/s
    Channel(s)                  : 6 channels
    Channel layout              : L R C LFE Ls Rs
    Sampling rate               : 48.0 kHz
    Frame rate                  : 1 200.000 FPS (40 SPF)
    Compression mode            : Lossless
    Stream size                 : 1.95 GiB (7%)
    Title                       : Ingles [CinemaniaHDD]
    Language                    : English
    Default                     : No
    Forced                      : No
    Original source medium      : Blu-ray

    Audio #3
    ID                          : 4
    ID in the original source m : 4352 (0x1100)
    Format                      : AC-3
    Format/Info                 : Audio Coding 3
    Commercial name             : Dolby Digital
    Codec ID                    : A_AC3
    Duration                    : 3 h 8 min
    Bit rate mode               : Constant
    Bit rate                    : 640 kb/s
    Channel(s)                  : 6 channels
    Channel layout              : L R C LFE Ls Rs
    Sampling rate               : 48.0 kHz
    Frame rate                  : 31.250 FPS (1536 SPF)
    Compression mode            : Lossy
    Stream size                 : 863 MiB (3%)
    Title                       : Ingles AC3 [CinemaniaHDD]
    Language                    : English
    Service kind                : Complete Main
    Default                     : No
    Forced                      : No
    Original source medium      : Blu-ray

    Text #1
    ID                          : 5
    Format                      : PGS
    Muxing mode                 : zlib
    Codec ID                    : S_HDMV/PGS
    Codec ID/Info               : Picture based subtitle format used on BDs/HD-DVDs
    Duration                    : 2 h 15 min
    Bit rate                    : 68 b/s
    Count of elements           : 8
    Stream size                 : 68.0 KiB (0%)
    Title                       : Forzados-PGS [CinemaniaHDD]
    Language                    : Spanish
    Default                     : No
    Forced                      : No

    Text #2
    ID                          : 6
    ID in the original source m : 4617 (0x1209)
    Format                      : PGS
    Muxing mode                 : zlib
    Codec ID                    : S_HDMV/PGS
    Codec ID/Info               : Picture based subtitle format used on BDs/HD-DVDs
    Duration                    : 3 h 6 min
    Bit rate                    : 23.3 kb/s
    Count of elements           : 3714
    Stream size                 : 31.1 MiB (0%)
    Title                       : Español-PGS [CinemaniaHDD]
    Language                    : Spanish
    Default                     : No
    Forced                      : No
    Original source medium      : Blu-ray

    Text #3
    ID                          : 7
    ID in the original source m : 4608 (0x1200)
    Format                      : PGS
    Muxing mode                 : zlib
    Codec ID                    : S_HDMV/PGS
    Codec ID/Info               : Picture based subtitle format used on BDs/HD-DVDs
    Duration                    : 3 h 7 min
    Bit rate                    : 25.5 kb/s
    Count of elements           : 3988
    Stream size                 : 34.1 MiB (0%)
    Title                       : Ingles-PGS [CinemaniaHDD]
    Language                    : English
    Default                     : No
    Forced                      : No
    Original source medium      : Blu-ray

    Text #4
    ID                          : 8
    Format                      : UTF-8
    Codec ID                    : S_TEXT/UTF8
    Codec ID/Info               : UTF-8 Plain Text
    Duration                    : 2 h 15 min
    Bit rate                    : 0 b/s
    Count of elements           : 4
    Stream size                 : 109 Bytes (0%)
    Title                       : Forzados-SRT [CinemaniaHDD]
    Language                    : Spanish
    Default                     : Yes
    Forced                      : Yes

    Text #5
    ID                          : 9
    Format                      : UTF-8
    Codec ID                    : S_TEXT/UTF8
    Codec ID/Info               : UTF-8 Plain Text
    Duration                    : 2 h 58 min
    Bit rate                    : 42 b/s
    Count of elements           : 1790
    Stream size                 : 55.1 KiB (0%)
    Title                       : Español-SRT [CinemaniaHDD]
    Language                    : Spanish
    Default                     : No
    Forced                      : No

    Menu
    00:00:00.000                : Chapter 01
    00:03:59.739                : Chapter 02
    00:07:41.627                : Chapter 03
    00:10:24.540                : Chapter 04
    00:15:50.407                : Chapter 05
    00:18:16.887                : Chapter 06
    00:21:51.935                : Chapter 07
    00:25:14.262                : Chapter 08
    00:27:10.837                : Chapter 09
    00:30:51.891                : Chapter 10
    00:36:25.892                : Chapter 11
    00:41:33.741                : Chapter 12
    00:43:58.177                : Chapter 13
    00:45:54.918                : Chapter 14
    00:47:47.281                : Chapter 15
    00:51:15.155                : Chapter 16
    00:53:31.958                : Chapter 17
    00:55:14.769                : Chapter 18
    01:00:38.009                : Chapter 19
    01:05:15.202                : Chapter 20
    01:08:24.934                : Chapter 21
    01:14:12.156                : Chapter 22
    01:16:14.111                : Chapter 23
    01:21:47.319                : Chapter 24
    01:24:09.294                : Chapter 25
    01:27:36.501                : Chapter 26
    01:30:37.807                : Chapter 27
    01:33:26.434                : Chapter 28
    01:36:38.709                : Chapter 29
    01:40:09.545                : Chapter 30
    01:44:22.089                : Chapter 31
    01:48:02.225                : Chapter 32
    01:52:39.878                : Chapter 33
    01:55:04.480                : Chapter 34
    01:59:51.684                : Chapter 35
    02:03:49.630                : Chapter 36
    02:05:50.376                : Chapter 37
    02:07:56.710                : Chapter 38
    02:10:52.845                : Chapter 39
    02:14:12.127                : Chapter 40
    02:17:56.935                : Chapter 41
    02:21:22.390                : Chapter 42
    02:25:51.993                : Chapter 43
    02:30:05.371                : Chapter 44
    02:34:26.674                : Chapter 45
    02:36:01.810                : Chapter 46
    02:38:20.157                : Chapter 47
    02:42:07.926                : Chapter 48
    02:44:12.717                : Chapter 49
    02:48:52.413                : Chapter 50
    02:53:01.537                : Chapter 51
    02:55:49.539                : Chapter 52
    03:00:35.032                : Chapter 53

  • Peso: 26.0 GiB

Sinopsis

Descargar Milagros Inesperados (1999) REMUX 1080p Latino-CMHDD. En el sur de los Estados Unidos, en plena Depresión, Paul Edgecomb es un vigilante penitenciario a cargo de la Milla Verde, un pasillo que separa las celdas de los reclusos condenados a la silla eléctrica. Esperando su ejecución está John Coffey, un gigantesco negro acusado de asesinar brutalmente a dos hermanas de nueve años. Tras una personalidad ingenua, Coffey esconde un don sobrenatural prodigioso. A medida que transcurre la historia, Paul Edgecomb aprende que los milagros ocurren… incluso en los lugares más insospechados.

Audio Español Latino AC3 5.1 Bluray – Ingles THD + AC3 5.1 Bluray
RESUBIDA CON AUDIO CORREGIDO!!!

Ficha técnica

Video trailer de la película

Enlaces de descarga

Rip de Bluray

Descargar Milagros Inesperados (1999) REMUX 1080p Latino-CMHDD


Aportes de DPeliculasHDmega la pass es:dpeliculashdmega.org Aportes de CinemaniaHD la pass es:cinemaniahdd.com Aportes recientes:cinemaniahdd.net
Guardado en : Crimen , Drama , Fantasía , Remux

Películas relacionadas

descargar Milagros Inesperados (1999) REMUX 1080p Latino-CMHDD Full 1080p 1080p gratis, Milagros Inesperados (1999) REMUX 1080p Latino-CMHDD Full 1080p mega 1 link, Milagros Inesperados (1999) REMUX 1080p Latino-CMHDD Full 1080p pelicula completa, descargar Milagros Inesperados (1999) REMUX 1080p Latino-CMHDD Full 1080p gratis en mega.

Milagros Inesperados (1999) REMUX 1080p Latino-CMHDD pelicula full hd, Milagros Inesperados (1999) REMUX 1080p Latino-CMHDD mega latino, Milagros Inesperados (1999) REMUX 1080p Latino-CMHDD 4k latino, Milagros Inesperados (1999) REMUX 1080p Latino-CMHDD pelicula completa, Milagros Inesperados (1999) REMUX 1080p Latino-CMHDD descargar gratis, descargar Milagros Inesperados (1999) REMUX 1080p Latino-CMHDD pelicula latino, Milagros Inesperados (1999) REMUX 1080p Latino-CMHDD 1 link mega, Milagros Inesperados (1999) REMUX 1080p Latino-CMHDD 1 link google drive, Milagros Inesperados (1999) REMUX 1080p Latino-CMHDD hd 1080p latino.
Comentarios 0