×

¿Problemas para descargar con Mozilla, EDGE? Deshabilita la opción "Abrir vinculos en una pestaña nueva" tal como lo muestra ésta imagen.

The Green Mile (1999) REMUX 4K HDR Latino – CMHDD

358 vistas

Información de The Green Mile (1999) REMUX 4K HDR Latino – CMHDD

Datos de la película

  • Calidad: 4K HDR
  • Audio: Español Latino AC3 2.0 BLURAY - Ingles AC3 5.1 BLURAY
  • Subtitulos: Español Latino PGS
  • Resolución: 3840x2160p
  • Formato: MKV
  • Codec: H.264
  • Encoder: Dracarys
  • Mediainfo: Clic para Mostrar Datos Ver
  • Format                      : Matroska
    Format version              : Version 4
    File size                   : 72.4 GiB
    Duration                    : 3 h 8 min
    Overall bit rate mode       : Variable
    Overall bit rate            : 55.0 Mb/s
    Movie name                  : The Green Mile (1999) REMUX 4K HDR Latino - CMHDD
    Encoded date                : UTC 2022-04-24 17:39:08
    Writing application         : mkvmerge v17.0.0 ('Be Ur Friend') 64-bit
    Writing library             : libebml v1.3.5 + libmatroska v1.4.8

    Video
    ID                          : 1
    Format                      : HEVC
    Format/Info                 : High Efficiency Video Coding
    Format profile              : Main 10@L5.1@High
    HDR format                  : SMPTE ST 2086, HDR10 compatible
    Codec ID                    : V_MPEGH/ISO/HEVC
    Duration                    : 3 h 8 min
    Bit rate                    : 51.1 Mb/s
    Width                       : 3 840 pixels
    Height                      : 2 160 pixels
    Display aspect ratio        : 16:9
    Frame rate mode             : Constant
    Frame rate                  : 23.976 (24000/1001) FPS
    Color space                 : YUV
    Chroma subsampling          : 4:2:0 (Type 2)
    Bit depth                   : 10 bits
    Bits/(Pixel*Frame)          : 0.257
    Stream size                 : 67.3 GiB (93%)
    Writing library             : ATEME Titan File 3.9.6 (4.9.6.2)        
    Default                     : Yes
    Forced                      : No
    Color range                 : Limited
    Color primaries             : BT.2020
    Transfer characteristics    : PQ
    Matrix coefficients         : BT.2020 non-constant
    Mastering display color pri : Display P3
    Mastering display luminance : min: 0.0050 cd/m2, max: 4000 cd/m2
    Maximum Content Light Level : 1114 cd/m2
    Maximum Frame-Average Light : 109 cd/m2

    Audio #1
    ID                          : 2
    Format                      : MLP FBA 16-ch
    Format/Info                 : Meridian Lossless Packing FBA with 16-channel presentation
    Commercial name             : Dolby TrueHD with Dolby Atmos
    Codec ID                    : A_TRUEHD
    Duration                    : 3 h 8 min
    Bit rate mode               : Variable
    Bit rate                    : 3 151 kb/s
    Maximum bit rate            : 5 436 kb/s
    Channel(s)                  : 8 channels
    Channel layout              : L R C LFE Ls Rs Lb Rb
    Sampling rate               : 48.0 kHz
    Frame rate                  : 1 200.000 FPS (40 SPF)
    Compression mode            : Lossless
    Stream size                 : 4.15 GiB (6%)
    Language                    : English
    Default                     : No
    Forced                      : No
    Number of dynamic objects   : 11
    Bed channel count           : 1 channel
    Bed channel configuration   : LFE

    Audio #2
    ID                          : 3
    Format                      : AC-3
    Format/Info                 : Audio Coding 3
    Commercial name             : Dolby Digital
    Format settings             : Dolby Surround EX
    Codec ID                    : A_AC3
    Duration                    : 3 h 8 min
    Bit rate mode               : Constant
    Bit rate                    : 448 kb/s
    Channel(s)                  : 6 channels
    Channel layout              : L R C LFE Ls Rs
    Sampling rate               : 48.0 kHz
    Frame rate                  : 31.250 FPS (1536 SPF)
    Compression mode            : Lossy
    Stream size                 : 604 MiB (1%)
    Language                    : English
    Service kind                : Complete Main
    Default                     : No
    Forced                      : No

    Audio #3
    ID                          : 4
    Format                      : AC-3
    Format/Info                 : Audio Coding 3
    Commercial name             : Dolby Digital
    Format settings             : Dolby Surround
    Codec ID                    : A_AC3
    Duration                    : 3 h 8 min
    Bit rate mode               : Constant
    Bit rate                    : 192 kb/s
    Channel(s)                  : 2 channels
    Channel layout              : L R
    Sampling rate               : 48.0 kHz
    Frame rate                  : 31.250 FPS (1536 SPF)
    Compression mode            : Lossy
    Stream size                 : 259 MiB (0%)
    Language                    : Spanish
    Service kind                : Complete Main
    Default                     : Yes
    Forced                      : No

    Text #1
    ID                          : 5
    Format                      : PGS
    Muxing mode                 : zlib
    Codec ID                    : S_HDMV/PGS
    Codec ID/Info               : Picture based subtitle format used on BDs/HD-DVDs
    Duration                    : 2 h 58 min
    Bit rate                    : 23.9 kb/s
    Count of elements           : 3712
    Stream size                 : 30.6 MiB (0%)
    Language                    : Spanish
    Default                     : No
    Forced                      : No

    Text #2
    ID                          : 6
    Format                      : PGS
    Muxing mode                 : zlib
    Codec ID                    : S_HDMV/PGS
    Codec ID/Info               : Picture based subtitle format used on BDs/HD-DVDs
    Duration                    : 2 h 15 min
    Bit rate                    : 71 b/s
    Count of elements           : 8
    Stream size                 : 71.6 KiB (0%)
    Language                    : Spanish
    Default                     : No
    Forced                      : No

    Menu
    00:00:00.000                : en:Chapter 1
    00:03:59.405                : en:Chapter 2
    00:07:41.294                : en:Chapter 3
    00:10:24.206                : en:Chapter 4
    00:15:50.074                : en:Chapter 5
    00:18:16.553                : en:Chapter 6
    00:21:51.601                : en:Chapter 7
    00:25:13.929                : en:Chapter 8
    00:27:10.503                : en:Chapter 9
    00:30:51.558                : en:Chapter 10
    00:36:25.558                : en:Chapter 11
    00:41:33.407                : en:Chapter 12
    00:43:57.843                : en:Chapter 13
    00:45:54.585                : en:Chapter 14
    00:47:46.947                : en:Chapter 15
    00:51:14.821                : en:Chapter 16
    00:53:31.625                : en:Chapter 17
    00:55:14.436                : en:Chapter 18
    01:00:37.675                : en:Chapter 19
    01:05:14.869                : en:Chapter 20
    01:08:24.600                : en:Chapter 21
    01:14:11.822                : en:Chapter 22
    01:16:13.777                : en:Chapter 23
    01:21:46.985                : en:Chapter 24
    01:24:08.960                : en:Chapter 25
    01:27:36.167                : en:Chapter 26
    01:30:37.473                : en:Chapter 27
    01:33:26.100                : en:Chapter 28
    01:36:38.417                : en:Chapter 29
    01:40:09.253                : en:Chapter 30
    01:44:21.797                : en:Chapter 31
    01:48:01.933                : en:Chapter 32
    01:52:39.586                : en:Chapter 33
    01:55:04.188                : en:Chapter 34
    01:59:51.392                : en:Chapter 35
    02:03:49.338                : en:Chapter 36
    02:05:50.084                : en:Chapter 37
    02:07:56.418                : en:Chapter 38
    02:10:52.553                : en:Chapter 39
    02:14:11.835                : en:Chapter 40
    02:17:56.643                : en:Chapter 41
    02:21:22.098                : en:Chapter 42
    02:25:51.701                : en:Chapter 43
    02:30:05.079                : en:Chapter 44
    02:34:26.382                : en:Chapter 45
    02:36:01.518                : en:Chapter 46
    02:38:19.865                : en:Chapter 47
    02:42:07.634                : en:Chapter 48
    02:44:12.425                : en:Chapter 49
    02:48:52.122                : en:Chapter 50
    02:53:01.245                : en:Chapter 51
    02:55:49.247                : en:Chapter 52
    03:00:34.031                : en:Chapter 53

  • Peso: 72.4 GiB

Sinopsis

En el sur de los Estados Unidos, en plena Depresión, Paul Edgecomb es un vigilante penitenciario a cargo de la Milla Verde, un pasillo que separa las celdas de los reclusos condenados a la silla eléctrica. Esperando su ejecución está John Coffey, un gigantesco negro acusado de asesinar brutalmente a dos hermanas de nueve años. Tras una personalidad ingenua, Coffey esconde un don sobrenatural prodigioso. A medida que transcurre la historia, Paul Edgecomb aprende que los milagros ocurren… incluso en los lugares más insospechados.

Ficha técnica

Video trailer de la película

Enlaces de descarga

Rip de Bluray

Descargar The Green Mile (1999) REMUX 4K HDR Latino – CMHDD


Aportes de DPeliculasHDmega la pass es:dpeliculashdmega.org Aportes de CinemaniaHD la pass es:cinemaniahdd.com
Guardado en : Crimen , Drama , Fantasía

Películas relacionadas

  • Corazón de tinta (2008) Full HD 1080p Latino

    Corazón de tinta (2008) Full HD 1080p Latino

    2008
    Corazón de tinta (2008) Full HD 1080p Latino

    1h 46m 2008

    Descargar Corazón de tinta (2008) Full HD 1080p Latino. Mortimer “Mo” Folchart y su hija de 12 años,...

    Director: Sharon Mansfield

    Género: Aventura

    Actores: Terry Cavanagh

  • Corazón de tinta (2008) REMUX 1080p Latino

    Corazón de tinta (2008) REMUX 1080p Latino

    2008
    Corazón de tinta (2008) REMUX 1080p Latino

    1h 46m 2008

    Descargar Corazón de tinta (2008) REMUX 1080p Latino. Mortimer “Mo” Folchart y su hija de 12 años,...

    Director: Sharon Mansfield

    Género: Aventura

    Actores: Tereza Srbová

  • Juego de espías (2001) 1080p Latino

    Juego de espías (2001) 1080p Latino

    2001
    Juego de espías (2001) 1080p Latino

    2h 6m 2001

    Descargar Juego de espías (2001) 1080p Latino. Corre el año 1991, y al veterano agente de la CIA Nathan...

    Director: Tony Scott

    Género: Acción

    Actores: Zsolt Zágoni

  • Juego de espías (2001) Full HD 1080p Latino

    Juego de espías (2001) Full HD 1080p Latino

    2001
    Juego de espías (2001) Full HD 1080p Latino

    2h 6m 2001

    Descargar Juego de espías (2001) Full HD 1080p Latino. Corre el año 1991, y al veterano agente de la...

    Director: Tony Scott

    Género: Acción

    Actores: Zsolt Zágoni

  • Juego de espías (2001) REMUX 1080p Latino

    Juego de espías (2001) REMUX 1080p Latino

    2001
    Juego de espías (2001) REMUX 1080p Latino

    1h 55m 2001

    Descargar Juego de espías (2001) REMUX 1080p Latino. El día de su jubilación, el veterano agente de...

    Director: Tony Scott

    Género: Acción

    Actores: Zsolt Zágoni

descargar The Green Mile (1999) REMUX 4K HDR Latino – CMHDD 4K HDR 1080p gratis, The Green Mile (1999) REMUX 4K HDR Latino – CMHDD 4K HDR mega 1 link, The Green Mile (1999) REMUX 4K HDR Latino – CMHDD 4K HDR pelicula completa, descargar The Green Mile (1999) REMUX 4K HDR Latino – CMHDD 4K HDR gratis en mega.

The Green Mile (1999) REMUX 4K HDR Latino – CMHDD pelicula full hd, The Green Mile (1999) REMUX 4K HDR Latino – CMHDD mega latino, The Green Mile (1999) REMUX 4K HDR Latino – CMHDD 4k latino, The Green Mile (1999) REMUX 4K HDR Latino – CMHDD pelicula completa, The Green Mile (1999) REMUX 4K HDR Latino – CMHDD descargar gratis, descargar The Green Mile (1999) REMUX 4K HDR Latino – CMHDD pelicula latino, The Green Mile (1999) REMUX 4K HDR Latino – CMHDD 1 link mega, The Green Mile (1999) REMUX 4K HDR Latino – CMHDD 1 link google drive, The Green Mile (1999) REMUX 4K HDR Latino – CMHDD hd 1080p latino.
Comentarios 0