×

¿Problemas para descargar con Mozilla, EDGE? Deshabilita la opción "Abrir vinculos en una pestaña nueva" tal como lo muestra ésta imagen.

The Greatest Showman (2017) REMUX 4K HDR Latino – CMHDD

171 vistas

Información de The Greatest Showman (2017) REMUX 4K HDR Latino – CMHDD

Datos de la película

  • Calidad: 4K HDR
  • Audio: Español Latino AC3 5.1 BLURAY - Ingles DTS 5.1 BLURAY
  • Subtitulos: Español Latino PGS
  • Resolución: 3840x2160p
  • Formato: MKV
  • Codec: H.264
  • Encoder: Dracarys
  • Mediainfo: Clic para Mostrar Datos Ver
  • Format                      : Matroska
    Format version              : Version 4
    File size                   : 48.4 GiB
    Duration                    : 1 h 44 min
    Overall bit rate mode       : Variable
    Overall bit rate            : 66.1 Mb/s
    Movie name                  : The Greatest Showman (2017) REMUX 4K HDR Latino - CMHDD
    Encoded date                : UTC 2021-08-01 00:49:47
    Writing application         : mkvmerge v56.1.0 ('My Friend') 64-bit
    Writing library             : libebml v1.4.2 + libmatroska v1.6.4
    Cover                       : Yes
    Attachments                 : cover.jpg

    Video
    ID                          : 1
    ID in the original source m : 4113 (0x1011)
    Format                      : HEVC
    Format/Info                 : High Efficiency Video Coding
    Format profile              : Main 10@L5.1@High
    HDR format                  : SMPTE ST 2086, HDR10 compatible
    Codec ID                    : V_MPEGH/ISO/HEVC
    Duration                    : 1 h 44 min
    Bit rate                    : 58.2 Mb/s
    Width                       : 3 840 pixels
    Height                      : 2 160 pixels
    Display aspect ratio        : 16:9
    Frame rate mode             : Constant
    Frame rate                  : 23.976 (24000/1001) FPS
    Color space                 : YUV
    Chroma subsampling          : 4:2:0 (Type 2)
    Bit depth                   : 10 bits
    Bits/(Pixel*Frame)          : 0.292
    Stream size                 : 42.6 GiB (88%)
    Default                     : Yes
    Forced                      : No
    Color range                 : Limited
    Color primaries             : BT.2020
    Transfer characteristics    : PQ
    Matrix coefficients         : BT.2020 non-constant
    Mastering display color pri : Display P3
    Mastering display luminance : min: 0.0050 cd/m2, max: 1000 cd/m2
    Original source medium      : Blu-ray

    Audio #1
    ID                          : 2
    ID in the original source m : 4352 (0x1100)
    Format                      : MLP FBA 16-ch
    Format/Info                 : Meridian Lossless Packing FBA with 16-channel presentation
    Commercial name             : Dolby TrueHD with Dolby Atmos
    Codec ID                    : A_TRUEHD
    Duration                    : 1 h 44 min
    Bit rate mode               : Variable
    Bit rate                    : 4 572 kb/s
    Maximum bit rate            : 7 779 kb/s
    Channel(s)                  : 8 channels
    Channel layout              : L R C LFE Ls Rs Lb Rb
    Sampling rate               : 48.0 kHz
    Frame rate                  : 1 200.000 FPS (40 SPF)
    Compression mode            : Lossless
    Stream size                 : 3.35 GiB (7%)
    Language                    : English
    Default                     : No
    Forced                      : No
    Original source medium      : Blu-ray
    Number of dynamic objects   : 13
    Bed channel count           : 1 channel
    Bed channel configuration   : LFE

    Audio #2
    ID                          : 3
    ID in the original source m : 4352 (0x1100)
    Format                      : AC-3
    Format/Info                 : Audio Coding 3
    Commercial name             : Dolby Digital
    Codec ID                    : A_AC3
    Duration                    : 1 h 44 min
    Bit rate mode               : Constant
    Bit rate                    : 640 kb/s
    Channel(s)                  : 6 channels
    Channel layout              : L R C LFE Ls Rs
    Sampling rate               : 48.0 kHz
    Frame rate                  : 31.250 FPS (1536 SPF)
    Compression mode            : Lossy
    Stream size                 : 480 MiB (1%)
    Language                    : English
    Service kind                : Complete Main
    Default                     : No
    Forced                      : No
    Original source medium      : Blu-ray

    Audio #3
    ID                          : 4
    ID in the original source m : 4353 (0x1101)
    Format                      : DTS XLL
    Format/Info                 : Digital Theater Systems
    Commercial name             : DTS-HD Master Audio
    Codec ID                    : A_DTS
    Duration                    : 1 h 44 min
    Bit rate mode               : Variable
    Bit rate                    : 2 114 kb/s
    Channel(s)                  : 2 channels
    Channel layout              : L R
    Sampling rate               : 48.0 kHz
    Frame rate                  : 93.750 FPS (512 SPF)
    Bit depth                   : 24 bits
    Compression mode            : Lossless
    Stream size                 : 1.55 GiB (3%)
    Language                    : English
    Default                     : No
    Forced                      : No
    Original source medium      : Blu-ray

    Audio #4
    ID                          : 5
    ID in the original source m : 4355 (0x1103)
    Format                      : AC-3
    Format/Info                 : Audio Coding 3
    Commercial name             : Dolby Digital
    Codec ID                    : A_AC3
    Duration                    : 1 h 44 min
    Bit rate mode               : Constant
    Bit rate                    : 448 kb/s
    Channel(s)                  : 6 channels
    Channel layout              : L R C LFE Ls Rs
    Sampling rate               : 48.0 kHz
    Frame rate                  : 31.250 FPS (1536 SPF)
    Compression mode            : Lossy
    Stream size                 : 336 MiB (1%)
    Language                    : Spanish
    Service kind                : Complete Main
    Default                     : Yes
    Forced                      : No
    Original source medium      : Blu-ray

    Text #1
    ID                          : 6
    ID in the original source m : 4769 (0x12A1)
    Format                      : PGS
    Muxing mode                 : zlib
    Codec ID                    : S_HDMV/PGS
    Codec ID/Info               : Picture based subtitle format used on BDs/HD-DVDs
    Duration                    : 1 h 43 min
    Bit rate                    : 38.9 kb/s
    Count of elements           : 2932
    Stream size                 : 28.9 MiB (0%)
    Language                    : Spanish
    Default                     : No
    Forced                      : No
    Original source medium      : Blu-ray

    Text #2
    ID                          : 7
    ID in the original source m : 4785 (0x12B1)
    Format                      : PGS
    Muxing mode                 : zlib
    Codec ID                    : S_HDMV/PGS
    Codec ID/Info               : Picture based subtitle format used on BDs/HD-DVDs
    Duration                    : 1 h 44 min
    Bit rate                    : 50.4 kb/s
    Count of elements           : 2488
    Stream size                 : 37.7 MiB (0%)
    Language                    : Spanish
    Default                     : No
    Forced                      : No
    Original source medium      : Blu-ray

    Text #3
    ID                          : 8
    ID in the original source m : 4789 (0x12B5)
    Format                      : PGS
    Muxing mode                 : zlib
    Codec ID                    : S_HDMV/PGS
    Codec ID/Info               : Picture based subtitle format used on BDs/HD-DVDs
    Duration                    : 1 h 44 min
    Bit rate                    : 48.0 kb/s
    Count of elements           : 2372
    Stream size                 : 35.9 MiB (0%)
    Language                    : Dutch
    Default                     : Yes
    Forced                      : No
    Original source medium      : Blu-ray

    Menu
    00:00:00.000                : Chapter 01
    00:03:21.618                : Chapter 02
    00:11:33.984                : Chapter 03
    00:16:21.313                : Chapter 04
    00:21:13.730                : Chapter 05
    00:25:04.169                : Chapter 06
    00:32:10.178                : Chapter 07
    00:36:09.625                : Chapter 08
    00:41:38.412                : Chapter 09
    00:44:41.053                : Chapter 10
    00:48:24.151                : Chapter 11
    00:53:11.146                : Chapter 12
    00:56:20.710                : Chapter 13
    01:01:34.816                : Chapter 14
    01:07:33.883                : Chapter 15
    01:12:00.983                : Chapter 16
    01:18:23.699                : Chapter 17
    01:22:07.130                : Chapter 18
    01:29:04.797                : Chapter 19
    01:37:09.448                : Chapter 20

  • Peso: 48.4 GiB

Sinopsis

Biopic sobre Phineas Taylor Barnum (1810-1891), un empresario circense estadounidense que fundó el «Ringling Bros. and Barnum & Bailey Circus», conocido como «el mayor espectáculo en la tierra».

Ficha técnica

Video trailer de la película

Enlaces de descarga

Rip de Bluray

Descargar The Greatest Showman (2017) REMUX 4K HDR Latino – CMHDD


Aportes de DPeliculasHDmega la pass es:dpeliculashdmega.org Aportes de CinemaniaHD la pass es:cinemaniahdd.com
Guardado en : Drama

Películas relacionadas

descargar The Greatest Showman (2017) REMUX 4K HDR Latino – CMHDD 4K HDR 1080p gratis, The Greatest Showman (2017) REMUX 4K HDR Latino – CMHDD 4K HDR mega 1 link, The Greatest Showman (2017) REMUX 4K HDR Latino – CMHDD 4K HDR pelicula completa, descargar The Greatest Showman (2017) REMUX 4K HDR Latino – CMHDD 4K HDR gratis en mega.

The Greatest Showman (2017) REMUX 4K HDR Latino – CMHDD pelicula full hd, The Greatest Showman (2017) REMUX 4K HDR Latino – CMHDD mega latino, The Greatest Showman (2017) REMUX 4K HDR Latino – CMHDD 4k latino, The Greatest Showman (2017) REMUX 4K HDR Latino – CMHDD pelicula completa, The Greatest Showman (2017) REMUX 4K HDR Latino – CMHDD descargar gratis, descargar The Greatest Showman (2017) REMUX 4K HDR Latino – CMHDD pelicula latino, The Greatest Showman (2017) REMUX 4K HDR Latino – CMHDD 1 link mega, The Greatest Showman (2017) REMUX 4K HDR Latino – CMHDD 1 link google drive, The Greatest Showman (2017) REMUX 4K HDR Latino – CMHDD hd 1080p latino.
Comentarios 0