×

¿Problemas para descargar con Mozilla, EDGE? Deshabilita la opción "Abrir vinculos en una pestaña nueva" tal como lo muestra ésta imagen.

El Gran Gatsby (2013) REMUX 4K UHD HDR Latino

309 vistas

Información de El Gran Gatsby (2013) REMUX 4K UHD HDR Latino

Datos de la película

  • Calidad: 4K HDR
  • Audio: Se especifica abajo de la Sinopsis
  • Subtitulos: Español Latino PGS - Ingles PGS
  • Resolución: 3840x2160p
  • Formato: MKV
  • Codec: HEVC
  • Encoder: CinefiloCool
  • Mediainfo: Clic para Mostrar Datos Ver
  • El Gran Gatsby (2013) REMUX UHD HDR Latino-CMHDD.mkv
    Format                      : Matroska
    Format version              : Version 4
    File size                   : 67.2 GiB
    Duration                    : 2 h 22 min
    Overall bit rate mode       : Variable
    Overall bit rate            : 67.7 Mb/s
    Movie name                  : The Great Gatsby (2013) CinemaniaHDD.Net
    Encoded date                : UTC 2021-03-12 06:57:15
    Writing application         : mkvmerge v51.0.0 ('I Wish') 64-bit
    Writing library             : libebml v1.4.0 + libmatroska v1.6.2
    Attachments                 : CINEMANIAHD.png

    Video
    ID                          : 1
    Format                      : HEVC
    Format/Info                 : High Efficiency Video Coding
    Format profile              : Main 10@L5.1@High
    HDR format                  : SMPTE ST 2086, HDR10 compatible
    Codec ID                    : V_MPEGH/ISO/HEVC
    Duration                    : 2 h 22 min
    Bit rate                    : 64.4 Mb/s
    Width                       : 3 840 pixels
    Height                      : 2 160 pixels
    Display aspect ratio        : 16:9
    Frame rate mode             : Constant
    Frame rate                  : 23.976 (23976/1000) FPS
    Original frame rate         : 23.976 (24000/1001) FPS
    Color space                 : YUV
    Chroma subsampling          : 4:2:0 (Type 2)
    Bit depth                   : 10 bits
    Bits/(Pixel*Frame)          : 0.324
    Stream size                 : 64.0 GiB (95%)
    Title                       : REMUX 2160p HDR [Bluray]
    Default                     : Yes
    Forced                      : Yes
    Color range                 : Limited
    Color primaries             : BT.2020
    Transfer characteristics    : PQ
    Matrix coefficients         : BT.2020 non-constant
    Mastering display color pri : Display P3
    Mastering display luminance : min: 0.0050 cd/m2, max: 4000 cd/m2
    Maximum Content Light Level : 1124 cd/m2
    Maximum Frame-Average Light : 755 cd/m2

    Audio #1
    ID                          : 2
    Format                      : E-AC-3
    Format/Info                 : Enhanced AC-3
    Commercial name             : Dolby Digital Plus
    Codec ID                    : A_EAC3
    Duration                    : 2 h 22 min
    Bit rate mode               : Constant
    Bit rate                    : 640 kb/s
    Channel(s)                  : 6 channels
    Channel layout              : L R C LFE Ls Rs
    Sampling rate               : 48.0 kHz
    Frame rate                  : 31.250 FPS (1536 SPF)
    Compression mode            : Lossy
    Delay relative to video     : 2 s 21 ms
    Stream size                 : 650 MiB (1%)
    Title                       : Español Latino [CinemaniaHDD]
    Language                    : Spanish
    Service kind                : Complete Main
    Default                     : Yes
    Forced                      : Yes

    Audio #2
    ID                          : 3
    Format                      : DTS XLL
    Format/Info                 : Digital Theater Systems
    Commercial name             : DTS-HD Master Audio
    Codec ID                    : A_DTS
    Duration                    : 2 h 22 min
    Bit rate mode               : Variable
    Bit rate                    : 2 183 kb/s
    Channel(s)                  : 6 channels
    Channel layout              : C L R Ls Rs LFE
    Sampling rate               : 48.0 kHz
    Frame rate                  : 93.750 FPS (512 SPF)
    Bit depth                   : 16 bits
    Compression mode            : Lossless
    Stream size                 : 2.17 GiB (3%)
    Title                       : Ingles [CinemaniaHDD]
    Language                    : English
    Default                     : No
    Forced                      : No

    Audio #3
    ID                          : 4
    Format                      : AC-3
    Format/Info                 : Audio Coding 3
    Commercial name             : Dolby Digital
    Codec ID                    : A_AC3
    Duration                    : 2 h 22 min
    Bit rate mode               : Constant
    Bit rate                    : 448 kb/s
    Channel(s)                  : 6 channels
    Channel layout              : L R C LFE Ls Rs
    Sampling rate               : 48.0 kHz
    Frame rate                  : 31.250 FPS (1536 SPF)
    Compression mode            : Lossy
    Stream size                 : 455 MiB (1%)
    Title                       : Español Latino BD [CinemaniaHDD]
    Language                    : Spanish
    Service kind                : Complete Main
    Default                     : No
    Forced                      : No

    Text #1
    ID                          : 5
    Format                      : PGS
    Muxing mode                 : zlib
    Codec ID                    : S_HDMV/PGS
    Codec ID/Info               : Picture based subtitle format used on BDs/HD-DVDs
    Duration                    : 2 h 20 min
    Bit rate                    : 329 b/s
    Count of elements           : 44
    Stream size                 : 338 KiB (0%)
    Title                       : Sub_Forzados [PGS]
    Language                    : Spanish
    Default                     : No
    Forced                      : No

    Text #2
    ID                          : 6
    Format                      : PGS
    Muxing mode                 : zlib
    Codec ID                    : S_HDMV/PGS
    Codec ID/Info               : Picture based subtitle format used on BDs/HD-DVDs
    Duration                    : 2 h 20 min
    Bit rate                    : 32.5 kb/s
    Count of elements           : 4414
    Stream size                 : 32.8 MiB (0%)
    Title                       : Sub_Esp [PGS]
    Language                    : Spanish
    Default                     : No
    Forced                      : No

    Text #3
    ID                          : 7
    Format                      : PGS
    Muxing mode                 : zlib
    Codec ID                    : S_HDMV/PGS
    Codec ID/Info               : Picture based subtitle format used on BDs/HD-DVDs
    Duration                    : 2 h 20 min
    Bit rate                    : 37.1 kb/s
    Count of elements           : 4642
    Stream size                 : 37.4 MiB (0%)
    Title                       : Sub_Eng [PGS]
    Language                    : English
    Default                     : No
    Forced                      : No

    Text #4
    ID                          : 8
    Format                      : UTF-8
    Codec ID                    : S_TEXT/UTF8
    Codec ID/Info               : UTF-8 Plain Text
    Duration                    : 2 h 20 min
    Bit rate                    : 0 b/s
    Count of elements           : 23
    Stream size                 : 549 Bytes (0%)
    Title                       : Sub_Forzados
    Language                    : Spanish
    Default                     : Yes
    Forced                      : Yes

    Text #5
    ID                          : 9
    Format                      : UTF-8
    Codec ID                    : S_TEXT/UTF8
    Codec ID/Info               : UTF-8 Plain Text
    Duration                    : 2 h 20 min
    Bit rate                    : 60 b/s
    Count of elements           : 2197
    Stream size                 : 62.3 KiB (0%)
    Title                       : Sub_Esp
    Language                    : Spanish
    Default                     : No
    Forced                      : No

    Menu
    00:00:00.000                : en:The East Egg
    00:11:04.080                : en:Myrtle Wilson
    00:22:55.832                : en:Invitation
    00:34:26.898                : en:Lunch With Gatsby
    00:44:48.727                : en:Reacquainted
    00:55:36.332                : en:Rich and Poor
    01:06:20.643                : en:A Party for Daisy
    01:18:27.786                : en:Lovers
    01:31:13.926                : en:Going Into Town
    01:44:11.954                : en:Confronting Tom
    01:56:35.154                : en:Trouble on the Road
    02:05:46.121                : en:The Driver
    02:09:40.981                : en:Revenge

  • Peso: 67.2 GiB

Sinopsis

Descargar El Gran Gatsby (2013) REMUX 4K UHD HDR Latino. Adaptación de la novela homónima de F. Scott Fitzgerald. En la alta sociedad norteamericana, llama la atención la presencia de Gatsby, un hombre misterioso e inmensamente rico, al que todos consideran un advenedizo, lo que no impide que acudan a sus fastuosas fiestas. Gatsby vive obsesionado con la idea de recuperar al amor de su juventud.

Audio Español Latino EAC3 5.1 NF + AC3 5.1 Bluray – Ingles DTS-HD 5.1 Bluray

Disponible Solo Para Usuarios VIP!! 🙂

Ficha técnica

Video trailer de la película

Enlaces de descarga

Rip de Bluray

Descargar El Gran Gatsby (2013) REMUX 4K UHD HDR Latino


Aportes de DPeliculasHDmega la pass es:dpeliculashdmega.org Aportes de CinemaniaHD la pass es:cinemaniahdd.com
Guardado en : 4K HDR , 4K UHD , Drama , Remux , Romance

Películas relacionadas

descargar El Gran Gatsby (2013) REMUX 4K UHD HDR Latino 4K HDR 1080p gratis, El Gran Gatsby (2013) REMUX 4K UHD HDR Latino 4K HDR mega 1 link, El Gran Gatsby (2013) REMUX 4K UHD HDR Latino 4K HDR pelicula completa, descargar El Gran Gatsby (2013) REMUX 4K UHD HDR Latino 4K HDR gratis en mega.

El Gran Gatsby (2013) REMUX 4K UHD HDR Latino pelicula full hd, El Gran Gatsby (2013) REMUX 4K UHD HDR Latino mega latino, El Gran Gatsby (2013) REMUX 4K UHD HDR Latino 4k latino, El Gran Gatsby (2013) REMUX 4K UHD HDR Latino pelicula completa, El Gran Gatsby (2013) REMUX 4K UHD HDR Latino descargar gratis, descargar El Gran Gatsby (2013) REMUX 4K UHD HDR Latino pelicula latino, El Gran Gatsby (2013) REMUX 4K UHD HDR Latino 1 link mega, El Gran Gatsby (2013) REMUX 4K UHD HDR Latino 1 link google drive, El Gran Gatsby (2013) REMUX 4K UHD HDR Latino hd 1080p latino.
Comentarios 0