×

¿Problemas para descargar con Mozilla, EDGE? Deshabilita la opción "Abrir vinculos en una pestaña nueva" tal como lo muestra ésta imagen.

The Great (2021) Segunda Temporada AMZN WEB-DL 1080p Latino

612 vistas

Información de The Great (2021) Segunda Temporada AMZN WEB-DL 1080p Latino

Datos de la película

  • Calidad: 1080p
  • Audio: Español Latino AC3 5.1 WEB-DL - Ingles AC3 5.1 WEB-DL
  • Subtitulos: Español Latino SRT- FORZADOS SRT
  • Resolución: 1920x960
  • Formato: MKV
  • Codec: H.264
  • Encoder: cinemaniahdd
  • Mediainfo: Clic para Mostrar Datos Ver
  • The Great T02E06 AMZN WEB-DL 1080p Latino [CNMNHDD].mkv
    Format                      : Matroska
    Format version              : Version 4
    File size                   : 4.07 GiB
    Duration                    : 51 min 13 s
    Overall bit rate            : 11.4 Mb/s
    Movie name                  : The Great S02E06 - A Simple Jape [1080p] [CNMNHDD]
    Encoded date                : UTC 2022-03-08 00:10:03
    Writing application         : mkvmerge v56.1.0 ('My Friend') 64-bit
    Writing library             : libebml v1.4.2 + libmatroska v1.6.4

    Video
    ID                          : 1
    Format                      : AVC
    Format/Info                 : Advanced Video Codec
    Format profile              : High@L4
    Format settings             : CABAC / 4 Ref Frames
    Format settings, CABAC      : Yes
    Format settings, Reference  : 4 frames
    Codec ID                    : V_MPEG4/ISO/AVC
    Duration                    : 51 min 13 s
    Bit rate mode               : Constant
    Bit rate                    : 9 447 kb/s
    Nominal bit rate            : 10 000 kb/s
    Width                       : 1 920 pixels
    Height                      : 960 pixels
    Display aspect ratio        : 2.000
    Frame rate mode             : Constant
    Frame rate                  : 23.976 (24000/1001) FPS
    Color space                 : YUV
    Chroma subsampling          : 4:2:0
    Bit depth                   : 8 bits
    Scan type                   : Progressive
    Bits/(Pixel*Frame)          : 0.214
    Stream size                 : 3.38 GiB (83%)
    Title                       : CinemaniaHDD
    Default                     : Yes
    Forced                      : No
    Color range                 : Limited
    Color primaries             : BT.709
    Transfer characteristics    : BT.709
    Matrix coefficients         : BT.709

    Audio #1
    ID                          : 2
    Format                      : AC-3
    Format/Info                 : Audio Coding 3
    Commercial name             : Dolby Digital
    Codec ID                    : A_AC3
    Duration                    : 51 min 13 s
    Bit rate mode               : Constant
    Bit rate                    : 640 kb/s
    Channel(s)                  : 6 channels
    Channel layout              : L R C LFE Ls Rs
    Sampling rate               : 48.0 kHz
    Frame rate                  : 31.250 FPS (1536 SPF)
    Compression mode            : Lossy
    Stream size                 : 235 MiB (6%)
    Title                       : Español latino [CinemaniaHDD]
    Language                    : Spanish
    Service kind                : Complete Main
    Default                     : Yes
    Forced                      : No

    Audio #2
    ID                          : 3
    Format                      : E-AC-3
    Format/Info                 : Enhanced AC-3
    Commercial name             : Dolby Digital Plus
    Codec ID                    : A_EAC3
    Duration                    : 51 min 13 s
    Bit rate mode               : Constant
    Bit rate                    : 640 kb/s
    Channel(s)                  : 6 channels
    Channel layout              : L R C LFE Ls Rs
    Sampling rate               : 48.0 kHz
    Frame rate                  : 31.250 FPS (1536 SPF)
    Compression mode            : Lossy
    Stream size                 : 235 MiB (6%)
    Title                       : Español latino / E-AC3 [CinemaniaHDD]
    Language                    : Spanish
    Service kind                : Complete Main
    Default                     : No
    Forced                      : No

    Audio #3
    ID                          : 4
    Format                      : E-AC-3
    Format/Info                 : Enhanced AC-3
    Commercial name             : Dolby Digital Plus
    Codec ID                    : A_EAC3
    Duration                    : 51 min 13 s
    Bit rate mode               : Constant
    Bit rate                    : 640 kb/s
    Channel(s)                  : 6 channels
    Channel layout              : L R C LFE Ls Rs
    Sampling rate               : 48.0 kHz
    Frame rate                  : 31.250 FPS (1536 SPF)
    Compression mode            : Lossy
    Stream size                 : 235 MiB (6%)
    Title                       : Inglés [CinemaniaHDD]
    Language                    : English
    Service kind                : Complete Main
    Default                     : No
    Forced                      : No

    Text #1
    ID                          : 5
    Format                      : UTF-8
    Codec ID                    : S_TEXT/UTF8
    Codec ID/Info               : UTF-8 Plain Text
    Duration                    : 6 s 757 ms
    Bit rate                    : 69 b/s
    Count of elements           : 3
    Stream size                 : 59.0 Bytes (0%)
    Title                       : Forzados [CinemaniaHDD]
    Language                    : Spanish
    Default                     : No
    Forced                      : Yes

    Text #2
    ID                          : 6
    Format                      : UTF-8
    Codec ID                    : S_TEXT/UTF8
    Codec ID/Info               : UTF-8 Plain Text
    Duration                    : 50 min 36 s
    Bit rate                    : 72 b/s
    Count of elements           : 797
    Stream size                 : 26.9 KiB (0%)
    Title                       : Español latino [CinemaniaHDD]
    Language                    : Spanish
    Default                     : No
    Forced                      : No

    Text #3
    ID                          : 7
    Format                      : UTF-8
    Codec ID                    : S_TEXT/UTF8
    Codec ID/Info               : UTF-8 Plain Text
    Duration                    : 48 min 35 s
    Bit rate                    : 78 b/s
    Count of elements           : 892
    Stream size                 : 28.0 KiB (0%)
    Title                       : Inglés [CinemaniaHDD]
    Language                    : English
    Default                     : No
    Forced                      : No

    Menu
    00:00:00.000                : Scene 1
    00:04:22.000                : Scene 2
    00:11:01.000                : Scene 3
    00:20:04.000                : Scene 4
    00:27:34.000                : Scene 5
    00:34:04.000                : Scene 6
    00:38:55.000                : Scene 7
    00:45:53.000                : Scene 8
    00:49:11.000                : End Credits

     

  • Peso: 4.07 GiB Aprox ---- 43 GiB in 10 Chapters.

Sinopsis

The Great es un drama cómico y satírico, ocasionalmente basado en hechos históricos, sobre cómo Catalina la Grande pasó de ser una forastera a la gobernante mujer con el reinado más largo de la historia de Rusia. Una historia muy moderna sobre el pasado.

Ficha técnica

Video trailer de la película

Enlaces de descarga

Rip de Bluray

Descargar The Great (2021) Segunda Temporada AMZN WEB-DL 1080p Latino




Aportes de DPeliculasHDmega la pass es:dpeliculashdmega.org Aportes de CinemaniaHD la pass es:cinemaniahdd.com
Guardado en : Comedia , Drama , Series

Películas relacionadas

descargar The Great (2021) Segunda Temporada AMZN WEB-DL 1080p Latino 1080p 1080p gratis, The Great (2021) Segunda Temporada AMZN WEB-DL 1080p Latino 1080p mega 1 link, The Great (2021) Segunda Temporada AMZN WEB-DL 1080p Latino 1080p serie completa, descargar The Great (2021) Segunda Temporada AMZN WEB-DL 1080p Latino 1080p gratis en mega.

The Great (2021) Segunda Temporada AMZN WEB-DL 1080p Latino pelicula full hd, The Great (2021) Segunda Temporada AMZN WEB-DL 1080p Latino mega latino, The Great (2021) Segunda Temporada AMZN WEB-DL 1080p Latino 4k latino, The Great (2021) Segunda Temporada AMZN WEB-DL 1080p Latino pelicula completa, The Great (2021) Segunda Temporada AMZN WEB-DL 1080p Latino descargar gratis, descargar The Great (2021) Segunda Temporada AMZN WEB-DL 1080p Latino pelicula latino, The Great (2021) Segunda Temporada AMZN WEB-DL 1080p Latino 1 link mega, The Great (2021) Segunda Temporada AMZN WEB-DL 1080p Latino 1 link google drive, The Great (2021) Segunda Temporada AMZN WEB-DL 1080p Latino hd 1080p latino.
Comentarios 0