×

¿Problemas para descargar con Mozilla, EDGE? Deshabilita la opción "Abrir vinculos en una pestaña nueva" tal como lo muestra ésta imagen.

Ronnie el estrangulador grasiento (2016) PLACEBO Full HD 1080p Latino

311 vistas

Información de Ronnie el estrangulador grasiento (2016) PLACEBO Full HD 1080p Latino

Datos de la película

  • Calidad: Full 1080p
  • Audio: Español Latino AC3 2.0 DVD - Ingles DTS 5.1 BLURAY
  • Subtitulos: Español Latino SRT- FORZADOS SRT
  • Resolución: 1920x1080p
  • Formato: MKV
  • Codec: H.264
  • Encoder: Melkor
  • Mediainfo: Clic para Mostrar Datos Ver
  • Ronnie El Estrangulador Grasiento (2016) PLACEBO Full HD 1080p Latino-CMHDD.mkv
    Format                      : Matroska
    Format version              : Version 4
    File size                   : 3.41 GiB
    Duration                    : 1 h 33 min
    Overall bit rate            : 5 233 kb/s
    Movie name                  : The Greasy Strangler (2016) CinemaniaHDD.Net
    Encoded date                : UTC 2020-07-23 06:18:10
    Writing application         : mkvmerge v46.0.0 ('No Deeper Escape') 64-bit
    Writing library             : libebml v1.3.10 + libmatroska v1.5.2
    Attachments                 : CINEMANIAHD.png

    Video
    ID                          : 1
    Format                      : AVC
    Format/Info                 : Advanced Video Codec
    Format profile              : High@L4.1
    Format settings             : CABAC / 4 Ref Frames
    Format settings, CABAC      : Yes
    Format settings, Reference  : 4 frames
    Codec ID                    : V_MPEG4/ISO/AVC
    Duration                    : 1 h 33 min
    Bit rate                    : 4 206 kb/s
    Width                       : 1 920 pixels
    Height                      : 1 080 pixels
    Display aspect ratio        : 16:9
    Frame rate mode             : Constant
    Frame rate                  : 24.000 FPS
    Color space                 : YUV
    Chroma subsampling          : 4:2:0
    Bit depth                   : 8 bits
    Scan type                   : Progressive
    Bits/(Pixel*Frame)          : 0.085
    Stream size                 : 2.74 GiB (80%)
    Title                       : Full HD1080p [CinemaniaHDD]
    Writing library             : x264 core 157 r2935 545de2f
    Encoding settings           : cabac=1 / ref=4 / deblock=1:0:0 / analyse=0x3:0x133 / me=tesa / subme=11 / psy=1 / psy_rd=1.00:0.00 / mixed_ref=1 / me_range=24 / chroma_me=1 / trellis=2 / 8x8dct=1 / cqm=0 / deadzone=21,11 / fast_pskip=0 / chroma_qp_offset=-2 / threads=24 / lookahead_threads=6 / sliced_threads=0 / nr=0 / decimate=1 / interlaced=0 / bluray_compat=0 / constrained_intra=0 / bframes=16 / b_pyramid=2 / b_adapt=2 / b_bias=0 / direct=3 / weightb=1 / open_gop=0 / weightp=2 / keyint=240 / keyint_min=24 / scenecut=40 / intra_refresh=0 / rc_lookahead=60 / rc=crf / mbtree=1 / crf=20.0 / qcomp=0.60 / qpmin=0 / qpmax=69 / qpstep=4 / vbv_maxrate=62500 / vbv_bufsize=78125 / crf_max=0.0 / nal_hrd=none / filler=0 / ip_ratio=1.40 / aq=1:1.00
    Default                     : Yes
    Forced                      : Yes
    Color range                 : Limited
    Color primaries             : BT.709
    Transfer characteristics    : BT.709
    Matrix coefficients         : BT.709

    Audio #1
    ID                          : 2
    Format                      : AC-3
    Format/Info                 : Audio Coding 3
    Commercial name             : Dolby Digital
    Codec ID                    : A_AC3
    Duration                    : 1 h 33 min
    Bit rate mode               : Constant
    Bit rate                    : 256 kb/s
    Channel(s)                  : 2 channels
    Channel layout              : L R
    Sampling rate               : 48.0 kHz
    Frame rate                  : 31.250 FPS (1536 SPF)
    Compression mode            : Lossy
    Stream size                 : 171 MiB (5%)
    Title                       : Español Latino [CinemaniaHDD]
    Language                    : Spanish
    Service kind                : Complete Main
    Default                     : Yes
    Forced                      : No

    Audio #2
    ID                          : 3
    Format                      : DTS
    Format/Info                 : Digital Theater Systems
    Codec ID                    : A_DTS
    Duration                    : 1 h 33 min
    Bit rate mode               : Constant
    Bit rate                    : 768 kb/s
    Channel(s)                  : 6 channels
    Channel layout              : C L R Ls Rs LFE
    Sampling rate               : 48.0 kHz
    Frame rate                  : 93.750 FPS (512 SPF)
    Bit depth                   : 24 bits
    Compression mode            : Lossy
    Stream size                 : 513 MiB (15%)
    Title                       : Ingles [CinemaniaHDD]
    Language                    : English
    Default                     : No
    Forced                      : No

    Text #1
    ID                          : 4
    Format                      : UTF-8
    Codec ID                    : S_TEXT/UTF8
    Codec ID/Info               : UTF-8 Plain Text
    Duration                    : 1 h 17 min
    Bit rate                    : 0 b/s
    Count of elements           : 2
    Stream size                 : 56.0 Bytes (0%)
    Title                       : Forzados-SRT [CinemaniaHDD]
    Language                    : Spanish
    Default                     : Yes
    Forced                      : No

    Text #2
    ID                          : 5
    Format                      : UTF-8
    Codec ID                    : S_TEXT/UTF8
    Codec ID/Info               : UTF-8 Plain Text
    Duration                    : 1 h 29 min
    Bit rate                    : 44 b/s
    Count of elements           : 892
    Stream size                 : 28.9 KiB (0%)
    Title                       : Español-SRT [CinemaniaHDD]
    Language                    : Spanish
    Default                     : No
    Forced                      : No

    Text #3
    ID                          : 6
    Format                      : UTF-8
    Codec ID                    : S_TEXT/UTF8
    Codec ID/Info               : UTF-8 Plain Text
    Duration                    : 1 h 25 min
    Bit rate                    : 44 b/s
    Count of elements           : 912
    Stream size                 : 28.2 KiB (0%)
    Title                       : Ingles-SRT [CinemaniaHDD]
    Language                    : English
    Default                     : No
    Forced                      : No

    Menu
    00:00:00.000                : en:Chapter 1
    00:13:17.000                : en:Chapter 2
    00:25:23.625                : en:Chapter 3
    00:34:59.291                : en:Chapter 4
    00:48:26.416                : en:Chapter 5
    01:04:42.666                : en:Chapter 6
    01:12:27.958                : en:Chapter 7
    01:22:51.333                : en:Chapter 8

  • Peso: 3.41 GiB

Sinopsis

Descargar Ronnie el estrangulador grasiento (2016) PLACEBO Full HD 1080p Latino. El film se centra en un padre y un hijo que realizan un tour por las discotecas de Los Angeles cuando una atractiva y seductora mujer se cruza en su camino. Padre e hijo empiezan una competición para hacerse con la atención de la chica a la vez que un grasiento e inhumano maníaco toma las calles en plena noche asesinando a inocentes. Es conocido como The Greasy Strangler.

Ficha técnica

Video trailer de la película

Enlaces de descarga

Rip de Bluray

Descargar Ronnie el estrangulador grasiento (2016) PLACEBO Full HD 1080p Latino




Aportes de DPeliculasHDmega la pass es:dpeliculashdmega.org Aportes de CinemaniaHD la pass es:cinemaniahdd.com

Películas relacionadas

  • M3GAN (2023) AMZN WEB-DL 4K UHD HDR Latino

    M3GAN (2023) AMZN WEB-DL 4K UHD HDR Latino

    2022
    M3GAN (2023) AMZN WEB-DL 4K UHD HDR Latino

    1h 42m 2022

    Descargar M3GAN (2023) AMZN WEB-DL 4K UHD HDR Latino. Cuando Gemma se convierte en la cuidadora de su...

    Director: Stephen W. Moore

    Género: 4K HDR

    Actores: Violet McGraw

  • M3GAN (2022) MA WEB-DL 1080p Latino

    M3GAN (2022) MA WEB-DL 1080p Latino

    2022
    M3GAN (2022) MA WEB-DL 1080p Latino

    1h 42m 2022

    Descargar M3GAN (2022) MA WEB-DL 1080p Latino. Cuando Gemma se convierte en la cuidadora de su sobrina...

    Director: Stephen W. Moore

    Género: Ciencia ficción

    Actores: Violet McGraw

  • Mar de sangre (2022) WEB-DL 1080p Latino

    Mar de sangre (2022) WEB-DL 1080p Latino

    2022
    Mar de sangre (2022) WEB-DL 1080p Latino

    1h 27m 2022

    Descargar Mar de sangre (2022) WEB-DL 1080p Latino. Un grupo de amigos que disfrutan de un fin de semana...

    Director: James Nunn

    Género: Acción

    Actores: Thomas Michael Flynn

  • Noche sin paz (2022) PLACEBO Full HD 1080p Latino

    Noche sin paz (2022) PLACEBO Full HD 1080p Latino

    2022
    Noche sin paz (2022) PLACEBO Full HD 1080p Latino

    1h 41m 2022

    Descargar Noche sin paz (2022) PLACEBO Full HD 1080p Latino. Cuando un equipo de mercenarios irrumpe...

    Director: Tyshana Hobson

    Género: Acción

    Actores: Yoon Cha-Lee

  • Noche sin paz (2022) HD 1080p Latino

    Noche sin paz (2022) HD 1080p Latino

    2022
    Noche sin paz (2022) HD 1080p Latino

    1h 41m 2022

    Descargar Noche sin paz (2022) HD 1080p Latino. Cuando un equipo de mercenarios irrumpe en Nochebuena...

    Director: Tyshana Hobson

    Género: Acción

    Actores: Yoon Cha-Lee

descargar Ronnie el estrangulador grasiento (2016) PLACEBO Full HD 1080p Latino Full 1080p 1080p gratis, Ronnie el estrangulador grasiento (2016) PLACEBO Full HD 1080p Latino Full 1080p mega 1 link, Ronnie el estrangulador grasiento (2016) PLACEBO Full HD 1080p Latino Full 1080p pelicula completa, descargar Ronnie el estrangulador grasiento (2016) PLACEBO Full HD 1080p Latino Full 1080p gratis en mega.

Ronnie el estrangulador grasiento (2016) PLACEBO Full HD 1080p Latino pelicula full hd, Ronnie el estrangulador grasiento (2016) PLACEBO Full HD 1080p Latino mega latino, Ronnie el estrangulador grasiento (2016) PLACEBO Full HD 1080p Latino 4k latino, Ronnie el estrangulador grasiento (2016) PLACEBO Full HD 1080p Latino pelicula completa, Ronnie el estrangulador grasiento (2016) PLACEBO Full HD 1080p Latino descargar gratis, descargar Ronnie el estrangulador grasiento (2016) PLACEBO Full HD 1080p Latino pelicula latino, Ronnie el estrangulador grasiento (2016) PLACEBO Full HD 1080p Latino 1 link mega, Ronnie el estrangulador grasiento (2016) PLACEBO Full HD 1080p Latino 1 link google drive, Ronnie el estrangulador grasiento (2016) PLACEBO Full HD 1080p Latino hd 1080p latino.
Comentarios 0