The Good Doctor (2020) Tercera Temporada [AMZN] WEB-DL 1080p Latino

1.419 vistas
1 estrella2 estrellas3 estrellas4 estrellas5 estrellas (1 votos, promedio: 5,00 de 5)
Cargando…

Información de The Good Doctor (2020) Tercera Temporada [AMZN] WEB-DL 1080p Latino

Datos de la película

  • Calidad: WEBDL
  • Audio: Español Latino E-AC3 5.1 AMAZON - Ingles E-AC3 5.1 AMAZON
  • Subtitulos: Español Latino SRT - Ingles SRT
  • Resolución: 1920x1080
  • Formato: MKV
  • Codec: H.264
  • Encoder: cinemaniahdd
  • Mediainfo: Clic para Mostrar Datos Ver
  • The Good Doctor T03E17 AMZN WEB-DL 1080p Latino.mkv
    Format                      : Matroska
    Format version              : Version 4
    File size                   : 2.02 GiB
    Duration                    : 43 min 7 s
    Overall bit rate            : 6 693 kb/s
    Movie name                  : The Good Doctor T03E17 - CinemaniaHDD.Net
    Encoded date                : UTC 2020-04-19 01:41:35
    Writing application         : mkvmerge v42.0.0 ('Overtime') 64-bit
    Writing library             : libebml v1.3.10 + libmatroska v1.5.2

    Video
    ID                          : 1
    Format                      : AVC
    Format/Info                 : Advanced Video Codec
    Format profile              : High@L4
    Format settings             : CABAC / 4 Ref Frames
    Format settings, CABAC      : Yes
    Format settings, ReFrames   : 4 frames
    Codec ID                    : V_MPEG4/ISO/AVC
    Duration                    : 43 min 7 s
    Bit rate mode               : Constant
    Bit rate                    : 5 410 kb/s
    Nominal bit rate            : 10 000 kb/s
    Width                       : 1 920 pixels
    Height                      : 1 080 pixels
    Display aspect ratio        : 16:9
    Frame rate mode             : Constant
    Frame rate                  : 23.976 (24000/1001) FPS
    Color space                 : YUV
    Chroma subsampling          : 4:2:0
    Bit depth                   : 8 bits
    Scan type                   : Progressive
    Bits/(Pixel*Frame)          : 0.109
    Stream size                 : 1.63 GiB (81%)
    Title                       : CinemaniaHDD
    Default                     : Yes
    Forced                      : No
    Color range                 : Limited
    Color primaries             : BT.709
    Transfer characteristics    : BT.709
    Matrix coefficients         : BT.709

    Audio #1
    ID                          : 2
    Format                      : E-AC-3
    Format/Info                 : Enhanced AC-3
    Commercial name             : Dolby Digital Plus
    Codec ID                    : A_EAC3
    Duration                    : 43 min 7 s
    Bit rate mode               : Constant
    Bit rate                    : 640 kb/s
    Channel(s)                  : 6 channels
    Channel layout              : L R C LFE Ls Rs
    Sampling rate               : 48.0 kHz
    Frame rate                  : 31.250 FPS (1536 SPF)
    Compression mode            : Lossy
    Stream size                 : 197 MiB (10%)
    Title                       : Español latino [CinemaniaHDD]
    Language                    : Spanish
    Service kind                : Complete Main
    Default                     : Yes
    Forced                      : No

    Audio #2
    ID                          : 3
    Format                      : E-AC-3
    Format/Info                 : Enhanced AC-3
    Commercial name             : Dolby Digital Plus
    Codec ID                    : A_EAC3
    Duration                    : 43 min 7 s
    Bit rate mode               : Constant
    Bit rate                    : 640 kb/s
    Channel(s)                  : 6 channels
    Channel layout              : L R C LFE Ls Rs
    Sampling rate               : 48.0 kHz
    Frame rate                  : 31.250 FPS (1536 SPF)
    Compression mode            : Lossy
    Stream size                 : 197 MiB (10%)
    Title                       : Inglés [CinemaniaHDD]
    Language                    : English
    Service kind                : Complete Main
    Default                     : No
    Forced                      : No

    Text #1
    ID                          : 4
    Format                      : UTF-8
    Codec ID                    : S_TEXT/UTF8
    Codec ID/Info               : UTF-8 Plain Text
    Duration                    : 42 min 55 s
    Bit rate                    : 67 b/s
    Count of elements           : 668
    Stream size                 : 21.3 KiB (0%)
    Title                       : Español latino [CinemaniaHDD]
    Language                    : Spanish
    Default                     : No
    Forced                      : No

    Text #2
    ID                          : 5
    Format                      : UTF-8
    Codec ID                    : S_TEXT/UTF8
    Codec ID/Info               : UTF-8 Plain Text
    Duration                    : 42 min 28 s
    Bit rate                    : 77 b/s
    Count of elements           : 860
    Stream size                 : 24.0 KiB (0%)
    Title                       : Inglés [CinemaniaHDD]
    Language                    : English
    Default                     : No
    Forced                      : No

     

  • Peso: 2.02 GiB C/U APROX.

Sinopsis

Se centra en un joven cirujano con síndrome de Savant quien es reclutado en la unidad de cirugía pediátrica de un prestigioso hospital. La pregunta surgirá: ¿Realmente puede salvar vidas una persona que no tiene la capacidad de relacionarse con otras personas?
20 CAPITULOS DISPONIBLES

Ficha técnica

  • Titulo original: The Good Doctor
  • Fecha de lanzamiento: 25-09-2017 (US)
  • Director: David Shore
  • Género: Drama, Series
  • Puntuación: 5.0 1 votos
  • Duración:
    0h 42m

Video trailer de la película

Enlaces de descarga

Rip de Bluray

Descargar The Good Doctor (2020) Tercera Temporada [AMZN] WEB-DL 1080p Latino




Aportes de DPeliculasHDmega la pass es:dpeliculashdmega.org Aportes de CinemaniaHD la pass es:cinemaniahdd.com
Guardado en : Drama , Series

Películas relacionadas

  • The Hater (2020) HD 1080p Latino

    The Hater (2020) HD 1080p Latino

    2020
    The Hater (2020) HD 1080p Latino

    0.0 2h 15m 2020

    Descargar The Hater (2020) HD 1080p Latino. Narra las manipulaciones del maquiavélico Tomek para conseguir...

    Director: Jan Komasa

    Género: Drama

    Actores: Vanessa Aleksander

  • The Hater (2020) PLACEBO Full HD 1080p Latino

    The Hater (2020) PLACEBO Full HD 1080p Latino

    2020
    The Hater (2020) PLACEBO Full HD 1080p Latino

    0.0 2h 15m 2020

    Descargar The Hater (2020) Placebo Full HD 1080p Latino. Narra las manipulaciones del maquiavélico Tomek...

    Director: Jan Komasa

    Género: Drama

    Actores: Vanessa Aleksander

  • The Hater (2020) REMUX 1080p Latino

    The Hater (2020) REMUX 1080p Latino

    2020
    The Hater (2020) REMUX 1080p Latino

    0.0 2h 15m 2020

    Descargar The Hater (2020) REMUX 1080p Latino. Narra las manipulaciones del maquiavélico Tomek para...

    Director: Jan Komasa

    Género: Drama

    Actores: Vanessa Aleksander

  • The Boys (2019) Temporada 1 AMZN WEB-DL 1080p Latino

    The Boys (2019) Temporada 1 AMZN WEB-DL 1080p Latino

    2019
    The Boys (2019) Temporada 1 AMZN WEB-DL 1080p Latino

    4.6 1h 0m 2019

    THE BOYS es una mirada irreverente sobre la idea de qué sucedería si los superhéroes, quienes son...

    Director: Evan Goldberg

    Género: Action & Adventure

    Actores: Nathan Mitchell

Comentarios 4
  • LUIS EDUAROD - 03 julio, 2020

    no se puede acceder a las descargas publicas

    • Dracarys - 03 julio, 2020

      Usar un VPN para cambiar país y que te cargue bien la publicidad…

  • RACOWOLDACK - 19 abril, 2020

    como puedo ver los enlaces de descarga no me deja

    • CinemaniaHDD - 19 abril, 2020

      Hola, tienes que darle clic en ver los link, luego darle clic a la barra de publicidad te devuelve a la pestaña anterior y esperar el conteo regresivo.
      si no vez la publicidad, borra la cache de tu navegador web