×

¿Problemas para descargar con Mozilla, EDGE? Deshabilita la opción "Abrir vinculos en una pestaña nueva" tal como lo muestra ésta imagen.

The Good Doctor (2021) Cuarta Temporada AMZN WEB-DL 1080p Latino

914 vistas

Información de The Good Doctor (2021) Cuarta Temporada AMZN WEB-DL 1080p Latino

Datos de la película

  • Calidad: WEBDL
  • Audio: Español Latino E-AC3 5.1 AMAZON - Ingles E-AC3 5.1 AMAZON
  • Subtitulos: Español Latino SRT- FORZADOS SRT
  • Resolución: 1920x1080p
  • Formato: MKV
  • Codec: H.264
  • Encoder: cinemaniahdd
  • Mediainfo: Clic para Mostrar Datos Ver
  • The Good Doctor T04E01 AMZN WEB-DL 1080p Latino [CNMNHDD].mkv
    Format                      : Matroska
    Format version              : Version 4
    File size                   : 2.52 GiB
    Duration                    : 43 min 10 s
    Overall bit rate            : 8 368 kb/s
    Movie name                  : The Good Doctor T04E01 - CinemaniaHDD.Net
    Encoded date                : UTC 2021-04-09 05:33:31
    Writing application         : mkvmerge v51.0.0 ('I Wish') 64-bit
    Writing library             : libebml v1.4.0 + libmatroska v1.6.2

    Video
    ID                          : 1
    Format                      : AVC
    Format/Info                 : Advanced Video Codec
    Format profile              : High@L4
    Format settings             : CABAC / 4 Ref Frames
    Format settings, CABAC      : Yes
    Format settings, Reference  : 4 frames
    Codec ID                    : V_MPEG4/ISO/AVC
    Duration                    : 43 min 10 s
    Bit rate mode               : Constant
    Bit rate                    : 6 445 kb/s
    Nominal bit rate            : 10 000 kb/s
    Width                       : 1 920 pixels
    Height                      : 1 080 pixels
    Display aspect ratio        : 16:9
    Frame rate mode             : Constant
    Frame rate                  : 23.976 (24000/1001) FPS
    Color space                 : YUV
    Chroma subsampling          : 4:2:0
    Bit depth                   : 8 bits
    Scan type                   : Progressive
    Bits/(Pixel*Frame)          : 0.130
    Stream size                 : 1.94 GiB (77%)
    Title                       : CinemaniaHDD
    Language                    : English
    Default                     : Yes
    Forced                      : No
    Color range                 : Limited
    Color primaries             : BT.709
    Transfer characteristics    : BT.709
    Matrix coefficients         : BT.709

    Audio #1
    ID                          : 2
    Format                      : AC-3
    Format/Info                 : Audio Coding 3
    Commercial name             : Dolby Digital
    Codec ID                    : A_AC3
    Duration                    : 43 min 10 s
    Bit rate mode               : Constant
    Bit rate                    : 640 kb/s
    Channel(s)                  : 6 channels
    Channel layout              : L R C LFE Ls Rs
    Sampling rate               : 48.0 kHz
    Frame rate                  : 31.250 FPS (1536 SPF)
    Compression mode            : Lossy
    Stream size                 : 198 MiB (8%)
    Title                       : Español latino - AC3 [CinemaniaHDD]
    Language                    : Spanish
    Service kind                : Complete Main
    Default                     : Yes
    Forced                      : No

    Audio #2
    ID                          : 3
    Format                      : E-AC-3
    Format/Info                 : Enhanced AC-3
    Commercial name             : Dolby Digital Plus
    Codec ID                    : A_EAC3
    Duration                    : 43 min 10 s
    Bit rate mode               : Constant
    Bit rate                    : 640 kb/s
    Channel(s)                  : 6 channels
    Channel layout              : L R C LFE Ls Rs
    Sampling rate               : 48.0 kHz
    Frame rate                  : 31.250 FPS (1536 SPF)
    Compression mode            : Lossy
    Stream size                 : 198 MiB (8%)
    Title                       : Español latino - E-AC3 [CinemaniaHDD]
    Language                    : Spanish
    Service kind                : Complete Main
    Default                     : No
    Forced                      : No

    Audio #3
    ID                          : 4
    Format                      : E-AC-3
    Format/Info                 : Enhanced AC-3
    Commercial name             : Dolby Digital Plus
    Codec ID                    : A_EAC3
    Duration                    : 43 min 10 s
    Bit rate mode               : Constant
    Bit rate                    : 640 kb/s
    Channel(s)                  : 6 channels
    Channel layout              : L R C LFE Ls Rs
    Sampling rate               : 48.0 kHz
    Frame rate                  : 31.250 FPS (1536 SPF)
    Compression mode            : Lossy
    Stream size                 : 198 MiB (8%)
    Title                       : Inglés - E-AC3 [CinemaniaHDD]
    Language                    : English
    Service kind                : Complete Main
    Default                     : No
    Forced                      : No

    Text #1
    ID                          : 5
    Format                      : UTF-8
    Codec ID                    : S_TEXT/UTF8
    Codec ID/Info               : UTF-8 Plain Text
    Duration                    : 30 min 3 s
    Bit rate                    : 2 b/s
    Count of elements           : 12
    Stream size                 : 479 Bytes (0%)
    Title                       : Forzados [CinemaniaHDD]
    Language                    : Spanish
    Default                     : Yes
    Forced                      : Yes

    Text #2
    ID                          : 6
    Format                      : UTF-8
    Codec ID                    : S_TEXT/UTF8
    Codec ID/Info               : UTF-8 Plain Text
    Duration                    : 43 min 0 s
    Bit rate                    : 73 b/s
    Count of elements           : 698
    Stream size                 : 23.3 KiB (0%)
    Title                       : Español latino [CinemaniaHDD]
    Language                    : Spanish
    Default                     : No
    Forced                      : No

    Text #3
    ID                          : 7
    Format                      : UTF-8
    Codec ID                    : S_TEXT/UTF8
    Codec ID/Info               : UTF-8 Plain Text
    Duration                    : 42 min 23 s
    Bit rate                    : 77 b/s
    Count of elements           : 831
    Stream size                 : 24.0 KiB (0%)
    Title                       : Inglés [CC] [CinemaniaHDD]
    Language                    : English
    Default                     : No
    Forced                      : No

    Menu
    00:00:00.000                : :Scene 1
    00:00:02.000                : :Scene 2
    00:03:48.000                : :Acknowledgement
    00:03:59.000                : :Scene 4
    00:08:45.000                : :Scene 5
    00:16:18.000                : :Scene 6
    00:24:18.000                : :Scene 7
    00:30:01.000                : :Scene 8
    00:35:49.000                : :Scene 9
    00:41:40.000                : :Scene 10
    00:42:31.000                : :End Credits

     

  • Peso: 2.52 GiB GiB Aprox ---- 46.5 GiB in 20 Chapters

Sinopsis

El Dr. Shaun Murphy (Freddie Highmore), un joven cirujano con autismo, continúa usando sus extraordinarios dones médicos en la unidad quirúrgica del Hospital St. Bonaventure. A medida que su relación romántica con Lea (Paige Spara) se profundice, también enfrentará nuevas responsabilidades como residente de cuarto año, cuando sea puesto a cargo de supervisar a un nuevo grupo de residentes que lo pondrán a prueba de formas que no puede predecir. Mientras tanto, el equipo debe lidiar con la incertidumbre y la presión que trae la pandemia de Covid-19

Ficha técnica

  • Titulo original: The Good Doctor
  • Fecha de lanzamiento: 25-09-2017 (US)
  • Director: David Shore
  • Género: Drama, Series

Video trailer de la película

Enlaces de descarga

Rip de Bluray

Descargar The Good Doctor (2021) Cuarta Temporada AMZN WEB-DL 1080p Latino




Aportes de DPeliculasHDmega la pass es:dpeliculashdmega.org Aportes de CinemaniaHD la pass es:cinemaniahdd.com
Guardado en : Drama , Series

Películas relacionadas

descargar The Good Doctor (2021) Cuarta Temporada AMZN WEB-DL 1080p Latino WEBDL 1080p gratis, The Good Doctor (2021) Cuarta Temporada AMZN WEB-DL 1080p Latino WEBDL mega 1 link, The Good Doctor (2021) Cuarta Temporada AMZN WEB-DL 1080p Latino WEBDL serie completa, descargar The Good Doctor (2021) Cuarta Temporada AMZN WEB-DL 1080p Latino WEBDL gratis en mega.

The Good Doctor (2021) Cuarta Temporada AMZN WEB-DL 1080p Latino pelicula full hd, The Good Doctor (2021) Cuarta Temporada AMZN WEB-DL 1080p Latino mega latino, The Good Doctor (2021) Cuarta Temporada AMZN WEB-DL 1080p Latino 4k latino, The Good Doctor (2021) Cuarta Temporada AMZN WEB-DL 1080p Latino pelicula completa, The Good Doctor (2021) Cuarta Temporada AMZN WEB-DL 1080p Latino descargar gratis, descargar The Good Doctor (2021) Cuarta Temporada AMZN WEB-DL 1080p Latino pelicula latino, The Good Doctor (2021) Cuarta Temporada AMZN WEB-DL 1080p Latino 1 link mega, The Good Doctor (2021) Cuarta Temporada AMZN WEB-DL 1080p Latino 1 link google drive, The Good Doctor (2021) Cuarta Temporada AMZN WEB-DL 1080p Latino hd 1080p latino.
Comentarios 4
  • Eduardo - 08 mayo, 2021

    Gracias por el aporte, cuando subiran los demas capitulos?

    • CinemaniaHDD - 09 agosto, 2021

      Hola, ya esta actualizada.

  • Rogelio - 16 febrero, 2021

    Gracias por el aporte, cuando subiran los demas episodios?

    • CinemaniaHDD - 09 abril, 2021

      agregada la primera parte