×

¿Problemas para descargar con Mozilla, EDGE? Deshabilita la opción "Abrir vinculos en una pestaña nueva" tal como lo muestra ésta imagen.

The Good Doctor (2018) Segunda Temporada [AMZN] WEB-DL 1080p Latino

3.261 vistas

Información de The Good Doctor (2018) Segunda Temporada [AMZN] WEB-DL 1080p Latino

zHdy8qTrKG0szzic3FCMkCrodnq

Datos de la película

  • Calidad: WEBDL
  • Audio: Español Latino E-AC3 5.1 AMAZON - Ingles E-AC3 5.1 AMAZON
  • Subtitulos: Español Latino SRT
  • Resolución: 1920x1080p
  • Formato: MKV
  • Codec: H.264
  • Encoder: Dracarys
  • Mediainfo: Clic para Mostrar Datos Ver
  • Format                      : Matroska
    Format version              : Version 4
    File size                   : 2.38 GiB
    Duration                    : 43 min 4 s
    Overall bit rate            : 7 921 kb/s
    Movie name                  : CinemaniaHDD.net
    Encoded date                : UTC 2020-04-24 03:45:32
    Writing application         : mkvmerge v38.0.0 ('The Silent Type') 64-bit
    Writing library             : libebml v1.3.9 + libmatroska v1.5.2

    Video
    ID                          : 1
    Format                      : AVC
    Format/Info                 : Advanced Video Codec
    Format profile              : High@L4
    Format settings             : CABAC / 4 Ref Frames
    Format settings, CABAC      : Yes
    Format settings, ReFrames   : 4 frames
    Codec ID                    : V_MPEG4/ISO/AVC
    Duration                    : 43 min 4 s
    Bit rate                    : 6 639 kb/s
    Width                       : 1 920 pixels
    Height                      : 1 080 pixels
    Display aspect ratio        : 16:9
    Frame rate mode             : Constant
    Frame rate                  : 23.976 (24000/1001) FPS
    Color space                 : YUV
    Chroma subsampling          : 4:2:0
    Bit depth                   : 8 bits
    Scan type                   : Progressive
    Bits/(Pixel*Frame)          : 0.134
    Stream size                 : 2.00 GiB (84%)
    Default                     : Yes
    Forced                      : No
    Color range                 : Limited
    Color primaries             : BT.709
    Transfer characteristics    : BT.709
    Matrix coefficients         : BT.709

    Audio #1
    ID                          : 2
    Format                      : E-AC-3
    Format/Info                 : Enhanced AC-3
    Commercial name             : Dolby Digital Plus
    Codec ID                    : A_EAC3
    Duration                    : 43 min 4 s
    Bit rate mode               : Constant
    Bit rate                    : 640 kb/s
    Channel(s)                  : 6 channels
    Channel layout              : L R C LFE Ls Rs
    Sampling rate               : 48.0 kHz
    Frame rate                  : 31.250 FPS (1536 SPF)
    Compression mode            : Lossy
    Stream size                 : 197 MiB (8%)
    Language                    : Spanish
    Service kind                : Complete Main
    Default                     : Yes
    Forced                      : Yes

    Audio #2
    ID                          : 3
    Format                      : E-AC-3
    Format/Info                 : Enhanced AC-3
    Commercial name             : Dolby Digital Plus
    Codec ID                    : A_EAC3
    Duration                    : 43 min 4 s
    Bit rate mode               : Constant
    Bit rate                    : 640 kb/s
    Channel(s)                  : 6 channels
    Channel layout              : L R C LFE Ls Rs
    Sampling rate               : 48.0 kHz
    Frame rate                  : 31.250 FPS (1536 SPF)
    Compression mode            : Lossy
    Stream size                 : 197 MiB (8%)
    Language                    : English
    Service kind                : Complete Main
    Default                     : No
    Forced                      : No

    Text
    ID                          : 4
    Format                      : UTF-8
    Codec ID                    : S_TEXT/UTF8
    Codec ID/Info               : UTF-8 Plain Text
    Duration                    : 42 min 2 s
    Bit rate                    : 67 b/s
    Count of elements           : 652
    Stream size                 : 20.7 KiB (0%)
    Title                       : Latino
    Language                    : Spanish
    Default                     : No
    Forced                      : No

  • Peso: 2.70 GiB X Capitulo

Sinopsis

Shaun Murphy, un joven cirujano con autismo y síndrome del sabio, tuvo una infancia problemática. Pero Murphy decide trasladarse a la ciudad para unirse al prestigioso departamento de cirugía en San José St. Bonaventure Hospital.

 

 

Resubido

Ficha técnica

  • Titulo original: The Good Doctor
  • Fecha de lanzamiento: 25-09-2017 (US)
  • Director: David Shore
  • Género: Drama, Series

Video trailer de la película

Enlaces de descarga

Rip de Bluray

Descargar The Good Doctor (2018) Segunda Temporada [AMZN] WEB-DL 1080p Latino




Aportes de DPeliculasHDmega la pass es:dpeliculashdmega.org Aportes de CinemaniaHD la pass es:cinemaniahdd.com
Guardado en : Drama , Series

Películas relacionadas

descargar The Good Doctor (2018) Segunda Temporada [AMZN] WEB-DL 1080p Latino WEBDL 1080p gratis, The Good Doctor (2018) Segunda Temporada [AMZN] WEB-DL 1080p Latino WEBDL mega 1 link, The Good Doctor (2018) Segunda Temporada [AMZN] WEB-DL 1080p Latino WEBDL serie completa, descargar The Good Doctor (2018) Segunda Temporada [AMZN] WEB-DL 1080p Latino WEBDL gratis en mega.

The Good Doctor (2018) Segunda Temporada [AMZN] WEB-DL 1080p Latino pelicula full hd, The Good Doctor (2018) Segunda Temporada [AMZN] WEB-DL 1080p Latino mega latino, The Good Doctor (2018) Segunda Temporada [AMZN] WEB-DL 1080p Latino 4k latino, The Good Doctor (2018) Segunda Temporada [AMZN] WEB-DL 1080p Latino pelicula completa, The Good Doctor (2018) Segunda Temporada [AMZN] WEB-DL 1080p Latino descargar gratis, descargar The Good Doctor (2018) Segunda Temporada [AMZN] WEB-DL 1080p Latino pelicula latino, The Good Doctor (2018) Segunda Temporada [AMZN] WEB-DL 1080p Latino 1 link mega, The Good Doctor (2018) Segunda Temporada [AMZN] WEB-DL 1080p Latino 1 link google drive, The Good Doctor (2018) Segunda Temporada [AMZN] WEB-DL 1080p Latino hd 1080p latino.
Comentarios 3
  • cristiangonzalo - 01 julio, 2019

    hola, muchas gracias pro el aporte, pero cap 17 y 18 audio desfazado, los audios publicados no calzaban con la versión de AMZN, espero los puedan arreglar, un abrazo.

    • Dracarys - 03 julio, 2019

      sera arreglado pronto gracias por reportar

      • Victor - 26 julio, 2019

        Se ven muy bien cada capitulo de la segunda temporada,los subtitulos y audio los activan y desactivan al momento de mirarlos en su pc,se escuchan muy bien.