×

¿Problemas para descargar con Mozilla, EDGE? Deshabilita la opción "Abrir vinculos en una pestaña nueva" tal como lo muestra ésta imagen.

The Good Doctor (2018) Segunda Temporada AMZN WEB-DL 1080p Latino

3.595 vistas

Información de The Good Doctor (2018) Segunda Temporada AMZN WEB-DL 1080p Latino

Datos de la película

  • Calidad: 1080p
  • Audio: Español Latino E-AC3 5.1 AMAZON - Ingles E-AC3 5.1 AMAZON
  • Subtitulos: Español Latino SRT - Ingles SRT
  • Resolución: 1920x1080
  • Formato: MKV
  • Codec: H.264
  • Encoder: cinemaniahdd
  • Mediainfo: Clic para Mostrar Datos Ver
  • The Good Doctor T02E01 AMZN WEB-DL 1080p Latino [CNMNHDD].mkv
    Format                      : Matroska
    Format version              : Version 4
    File size                   : 3.25 GiB
    Duration                    : 43 min 40 s
    Overall bit rate            : 10.6 Mb/s
    Movie name                  : The Good Doctor S02E01 - Hello [1080p] - CinemaniaHDD.Net
    Encoded date                : UTC 2024-05-06 01:26:34
    Writing application         : mkvmerge v63.0.0 ('Everything') 32-bit
    Writing library             : libebml v1.4.2 + libmatroska v1.6.4

    Video
    ID                          : 1
    Format                      : AVC
    Format/Info                 : Advanced Video Codec
    Format profile              : High@L4
    Format settings             : CABAC / 4 Ref Frames
    Format settings, CABAC      : Yes
    Format settings, Reference  : 4 frames
    Codec ID                    : V_MPEG4/ISO/AVC
    Duration                    : 43 min 40 s
    Bit rate mode               : Constant
    Bit rate                    : 9 361 kb/s
    Nominal bit rate            : 10 000 kb/s
    Width                       : 1 920 pixels
    Height                      : 1 080 pixels
    Display aspect ratio        : 16:9
    Frame rate mode             : Constant
    Frame rate                  : 23.976 (24000/1001) FPS
    Color space                 : YUV
    Chroma subsampling          : 4:2:0
    Bit depth                   : 8 bits
    Scan type                   : Progressive
    Bits/(Pixel*Frame)          : 0.188
    Stream size                 : 2.86 GiB (88%)
    Title                       : CinemaniaHDD
    Default                     : Yes
    Forced                      : No
    Color range                 : Limited
    Color primaries             : BT.709
    Transfer characteristics    : BT.709
    Matrix coefficients         : BT.709

    Audio #1
    ID                          : 2
    Format                      : E-AC-3
    Format/Info                 : Enhanced AC-3
    Commercial name             : Dolby Digital Plus
    Codec ID                    : A_EAC3
    Duration                    : 43 min 40 s
    Bit rate mode               : Constant
    Bit rate                    : 640 kb/s
    Channel(s)                  : 6 channels
    Channel layout              : L R C LFE Ls Rs
    Sampling rate               : 48.0 kHz
    Frame rate                  : 31.250 FPS (1536 SPF)
    Compression mode            : Lossy
    Stream size                 : 200 MiB (6%)
    Title                       : Español Latino [CinemaniaHDD]
    Language                    : Spanish
    Service kind                : Complete Main
    Default                     : Yes
    Forced                      : No

    Audio #2
    ID                          : 3
    Format                      : E-AC-3
    Format/Info                 : Enhanced AC-3
    Commercial name             : Dolby Digital Plus
    Codec ID                    : A_EAC3
    Duration                    : 43 min 40 s
    Bit rate mode               : Constant
    Bit rate                    : 640 kb/s
    Channel(s)                  : 6 channels
    Channel layout              : L R C LFE Ls Rs
    Sampling rate               : 48.0 kHz
    Frame rate                  : 31.250 FPS (1536 SPF)
    Compression mode            : Lossy
    Stream size                 : 200 MiB (6%)
    Title                       : Inglés (Original) [CinemaniaHDD]
    Language                    : English
    Service kind                : Complete Main
    Default                     : No
    Forced                      : No

    Text #1
    ID                          : 4
    Format                      : UTF-8
    Codec ID                    : S_TEXT/UTF8
    Codec ID/Info               : UTF-8 Plain Text
    Duration                    : 42 min 55 s
    Bit rate                    : 66 b/s
    Count of elements           : 576
    Stream size                 : 20.9 KiB (0%)
    Title                       : Spanish (Latin America)
    Language                    : Spanish
    Default                     : No
    Forced                      : No

    Text #2
    ID                          : 5
    Format                      : UTF-8
    Codec ID                    : S_TEXT/UTF8
    Codec ID/Info               : UTF-8 Plain Text
    Duration                    : 42 min 17 s
    Bit rate                    : 75 b/s
    Count of elements           : 619
    Stream size                 : 23.4 KiB (0%)
    Title                       : Spanish (Latin America) (SDH)
    Language                    : Spanish
    Default                     : No
    Forced                      : No

    Text #3
    ID                          : 6
    Format                      : UTF-8
    Codec ID                    : S_TEXT/UTF8
    Codec ID/Info               : UTF-8 Plain Text
    Duration                    : 42 min 17 s
    Bit rate                    : 64 b/s
    Count of elements           : 567
    Stream size                 : 20.0 KiB (0%)
    Language                    : English
    Default                     : No
    Forced                      : No

    Text #4
    ID                          : 7
    Format                      : UTF-8
    Codec ID                    : S_TEXT/UTF8
    Codec ID/Info               : UTF-8 Plain Text
    Duration                    : 42 min 43 s
    Bit rate                    : 71 b/s
    Count of elements           : 803
    Stream size                 : 22.3 KiB (0%)
    Title                       : SDH
    Language                    : English
    Default                     : No
    Forced                      : No

    Menu
    00:00:00.000                : en:Previously On
    00:03:37.000                : en:Title Sequence
    00:03:56.000                : en:Scene 3
    00:16:35.000                : en:Scene 4
    00:28:17.000                : en:Scene 5
    00:42:22.000                : en:End Credits

     

  • Peso: 3.25 GiB Aprox ---- 53 GiB in 18 Chapters.

Sinopsis

Se centra en un joven cirujano con síndrome de Savant quien es reclutado en la unidad de cirugía pediátrica de un prestigioso hospital. La pregunta surgirá: ¿Realmente puede salvar vidas una persona que no tiene la capacidad de relacionarse con otras personas?

RE-SUBIDO

Ficha técnica

  • Titulo original: The Good Doctor
  • Fecha de lanzamiento: 25-09-2017 (US)
  • Director: David Shore
  • Género: Drama, Series

Video trailer de la película

Enlaces de descarga

Rip de Bluray

Descargar The Good Doctor (2018) Segunda Temporada AMZN WEB-DL 1080p Latino




Aportes de DPeliculasHDmega la pass es:dpeliculashdmega.org Aportes de CinemaniaHD la pass es:cinemaniahdd.com Aportes recientes:cinemaniahdd.net
Guardado en : Drama , Series

Películas relacionadas

descargar The Good Doctor (2018) Segunda Temporada AMZN WEB-DL 1080p Latino 1080p 1080p gratis, The Good Doctor (2018) Segunda Temporada AMZN WEB-DL 1080p Latino 1080p mega 1 link, The Good Doctor (2018) Segunda Temporada AMZN WEB-DL 1080p Latino 1080p serie completa, descargar The Good Doctor (2018) Segunda Temporada AMZN WEB-DL 1080p Latino 1080p gratis en mega.

The Good Doctor (2018) Segunda Temporada AMZN WEB-DL 1080p Latino pelicula full hd, The Good Doctor (2018) Segunda Temporada AMZN WEB-DL 1080p Latino mega latino, The Good Doctor (2018) Segunda Temporada AMZN WEB-DL 1080p Latino 4k latino, The Good Doctor (2018) Segunda Temporada AMZN WEB-DL 1080p Latino pelicula completa, The Good Doctor (2018) Segunda Temporada AMZN WEB-DL 1080p Latino descargar gratis, descargar The Good Doctor (2018) Segunda Temporada AMZN WEB-DL 1080p Latino pelicula latino, The Good Doctor (2018) Segunda Temporada AMZN WEB-DL 1080p Latino 1 link mega, The Good Doctor (2018) Segunda Temporada AMZN WEB-DL 1080p Latino 1 link google drive, The Good Doctor (2018) Segunda Temporada AMZN WEB-DL 1080p Latino hd 1080p latino.
Comentarios 3