The Good Doctor (2017) Primera Temporada [AMZN] WEB-DL 1080p Latino

2.591 vistas
1 estrella2 estrellas3 estrellas4 estrellas5 estrellas (5 votos, promedio: 4,20 de 5)
Cargando…

Información de The Good Doctor (2017) Primera Temporada [AMZN] WEB-DL 1080p Latino

Datos de la película

  • Calidad: WEBDL
  • Audio: Español Latino AC3 2.0 Capturado- Ingles AC3 5.1 AMAZON
  • Subtitulos: Español Latino SRT
  • Resolución: 1920x1080p
  • Formato: MKV
  • Codec: H.264
  • Encoder: Dracarys
  • Mediainfo: Clic para Mostrar Datos Ver
  • Format                                   : Matroska
    Format version                           : Version 4 / Version 2
    File size                                : 2.20 GiB
    Duration                                 : 43 min 8 s
    Overall bit rate mode                    : Variable
    Overall bit rate                         : 7 301 kb/s
    Movie name                               : CinemaniaHDD.net
    Encoded date                             : UTC 2018-09-14 03:07:23
    Writing application                      : mkvmerge v15.0.0 ('Duel with the Devil') 64-bit
    Writing library                          : libebml v1.3.5 + libmatroska v1.4.5

    Video
    ID                                       : 1
    Format                                   : AVC
    Format/Info                              : Advanced Video Codec
    Format profile                           : [email protected]
    Format settings                          : CABAC / 4 Ref Frames
    Format settings, CABAC                   : Yes
    Format settings, RefFrames               : 4 frames
    Codec ID                                 : V_MPEG4/ISO/AVC
    Duration                                 : 43 min 8 s
    Bit rate mode                            : Variable
    Bit rate                                 : 6 466 kb/s
    Maximum bit rate                         : 15.0 Mb/s
    Width                                    : 1 920 pixels
    Height                                   : 1 080 pixels
    Display aspect ratio                     : 16:9
    Frame rate mode                          : Constant
    Frame rate                               : 23.976 (24000/1001) FPS
    Color space                              : YUV
    Chroma subsampling                       : 4:2:0
    Bit depth                                : 8 bits
    Scan type                                : Progressive
    Bits/(Pixel*Frame)                       : 0.130
    Stream size                              : 1.95 GiB (89%)
    Language                                 : English
    Default                                  : Yes
    Forced                                   : No
    Color range                              : Limited
    Color primaries                          : BT.709
    Transfer characteristics                 : BT.709
    Matrix coefficients                      : BT.709

    Audio #1
    ID                                       : 2
    Format                                   : AC-3
    Format/Info                              : Audio Coding 3
    Format settings, Endianness              : Big
    Codec ID                                 : A_AC3
    Duration                                 : 43 min 8 s
    Bit rate mode                            : Constant
    Bit rate                                 : 192 kb/s
    Channel(s)                               : 2 channels
    Channel positions                        : Front: L R
    Sampling rate                            : 48.0 kHz
    Frame rate                               : 31.250 FPS (1536 SPF)
    Bit depth                                : 16 bits
    Compression mode                         : Lossy
    Stream size                              : 59.2 MiB (3%)
    Language                                 : Spanish
    Service kind                             : Complete Main
    Default                                  : Yes
    Forced                                   : No

    Audio #2
    ID                                       : 3
    Format                                   : E-AC-3
    Format/Info                              : Enhanced Audio Coding 3
    Format settings, Endianness              : Big
    Codec ID                                 : A_EAC3
    Duration                                 : 43 min 8 s
    Bit rate mode                            : Constant
    Bit rate                                 : 640 kb/s
    Channel(s)                               : 6 channels
    Channel positions                        : Front: L C R, Side: L R, LFE
    Sampling rate                            : 48.0 kHz
    Frame rate                               : 187.500 FPS (256 SPF)
    Compression mode                         : Lossy
    Stream size                              : 197 MiB (9%)
    Language                                 : English
    Service kind                             : Complete Main
    Default                                  : No
    Forced                                   : No

    Text #1
    ID                                       : 4
    Format                                   : UTF-8
    Codec ID                                 : S_TEXT/UTF8
    Codec ID/Info                            : UTF-8 Plain Text
    Duration                                 : 42 min 24 s
    Bit rate                                 : 77 b/s
    Count of elements                        : 927
    Stream size                              : 23.9 KiB (0%)
    Language                                 : English
    Default                                  : No
    Forced                                   : No

    Text #2
    ID                                       : 5
    Format                                   : UTF-8
    Codec ID                                 : S_TEXT/UTF8
    Codec ID/Info                            : UTF-8 Plain Text
    Duration                                 : 42 min 30 s
    Bit rate                                 : 77 b/s
    Count of elements                        : 793
    Stream size                              : 24.2 KiB (0%)
    Language                                 : Spanish
    Default                                  : No
    Forced                                   : No

  • Peso: 2.00 GiB X Capitulo

Sinopsis

Shaun Murphy, un joven cirujano residente que padece autismo y síndrome de Savant, conocido también como el síndrome del sabio, una enfermedad que le causa problemas a la hora de relacionarse con los demás, pero que a su vez le ha permitido desarrollar unas habilidadades mentales prodigiosas, como es el caso de su extraordinaria memoria. A pesar de que Shaun ha tenido una infancia muy complicada, se ha convertido en un médico con mucho talento y ha sido reclutado por el doctor Aaron Glassman en la unidad de cirugía pediátrica del prestigioso San José St. Bonaventure Hospital.

Ficha técnica

  • Titulo original: The Good Doctor
  • Fecha de lanzamiento: 25-09-2017 (US)
  • Director: David Shore
  • Género: Drama, Series
  • Puntuación: 4.2 5 votos
  • Duración:
    0h 42m

Video trailer de la película

Enlaces de descarga

Rip de Bluray

Descargar The Good Doctor (2017) Primera Temporada [AMZN] WEB-DL 1080p Latino




Aportes de DPeliculasHDmega la pass es:dpeliculashdmega.org Aportes de CinemaniaHD la pass es:cinemaniahdd.com
Guardado en : Drama , Series

Películas relacionadas

  • The mule (2018) WEB-DL 1080p Latino

    2018
    The mule (2018) WEB-DL 1080p Latino

    0.0 1h 56m 2018

    A Earl Stone (Eastwood), un octogenario que está en quiebra, solo, y que se enfrenta a la ejecución...

    Director: Clint Eastwood

    Género: Crimen

    Actores: Victor Rasuk

  • Nace Una Estrella (2018) 4K UHD HDR Latino

    2018
    Nace Una Estrella (2018) 4K UHD HDR Latino

    0.0 2h 25m 2018

    Descargar Nace Una Estrella (2018) 4K UHD HDR Latino, Mega, Google Drive. Jackson Maine es una estrella...

    Director: Bradley Cooper

    Género: 4K HDR

    Actores: Willam Belli

  • FBI (2018) Temporada 1 1080p WEB-DL Latino

    2018
    FBI (2018) Temporada 1 1080p WEB-DL Latino

    0.0 0h 43m 2018

    Serie de TV (2018-). Drama vertiginoso sobre el funcionamiento interno de la oficina de Nueva York del...

    Director: Dick Wolf

    Género: Crimen

    Actores: Zeeko Zaki

Comentarios 1
  • Marck - 15 septiembre, 2018

    Gracias! Justo ayer lo busque aquí y no había y quede decepcionad, hoy entre y encuentre subido es algo fantástico.