×

¿Problemas para descargar con Mozilla, EDGE? Deshabilita la opción "Abrir vinculos en una pestaña nueva" tal como lo muestra ésta imagen.

The Good Dinosaur (2015) REMUX 4K HDR Latino – CMHDD

111 vistas

Información de The Good Dinosaur (2015) REMUX 4K HDR Latino – CMHDD

Datos de la película

  • Calidad: 4K HDR
  • Audio: Se especifica abajo de la Sinopsis
  • Subtitulos: Español Latino PGS
  • Resolución: 3840x2160p
  • Formato: MKV
  • Codec: H.264
  • Encoder: Dracarys
  • Mediainfo: Clic para Mostrar Datos Ver
  • Format                      : Matroska
    Format version              : Version 4
    File size                   : 42.1 GiB
    Duration                    : 1 h 33 min
    Overall bit rate mode       : Variable
    Overall bit rate            : 64.2 Mb/s
    Movie name                  : The Good Dinosaur (2015) REMUX 4K HDR Latino - CMHDD
    Encoded date                : UTC 2022-04-27 16:55:56
    Writing application         : mkvmerge v17.0.0 ('Be Ur Friend') 64-bit
    Writing library             : libebml v1.3.5 + libmatroska v1.4.8

    Video
    ID                          : 1
    Format                      : HEVC
    Format/Info                 : High Efficiency Video Coding
    Format profile              : Main 10@L5.1@High
    HDR format                  : SMPTE ST 2086, HDR10 compatible
    Codec ID                    : V_MPEGH/ISO/HEVC
    Duration                    : 1 h 33 min
    Bit rate                    : 55.4 Mb/s
    Width                       : 3 840 pixels
    Height                      : 2 160 pixels
    Display aspect ratio        : 16:9
    Frame rate mode             : Constant
    Frame rate                  : 23.976 (24000/1001) FPS
    Color space                 : YUV
    Chroma subsampling          : 4:2:0 (Type 2)
    Bit depth                   : 10 bits
    Bits/(Pixel*Frame)          : 0.279
    Stream size                 : 36.3 GiB (86%)
    Writing library             : ATEME Titan File 3.9.0 (4.9.0.0)        
    Default                     : Yes
    Forced                      : No
    Color range                 : Limited
    Color primaries             : BT.2020
    Transfer characteristics    : PQ
    Matrix coefficients         : BT.2020 non-constant
    Mastering display color pri : Display P3
    Mastering display luminance : min: 0.0000 cd/m2, max: 1000 cd/m2

    Audio #1
    ID                          : 2
    Format                      : MLP FBA 16-ch
    Format/Info                 : Meridian Lossless Packing FBA with 16-channel presentation
    Commercial name             : Dolby TrueHD with Dolby Atmos
    Codec ID                    : A_TRUEHD
    Duration                    : 1 h 33 min
    Bit rate mode               : Variable
    Bit rate                    : 6 336 kb/s
    Maximum bit rate            : 8 292 kb/s
    Channel(s)                  : 8 channels
    Channel layout              : L R C LFE Ls Rs Lb Rb
    Sampling rate               : 48.0 kHz
    Frame rate                  : 1 200.000 FPS (40 SPF)
    Compression mode            : Lossless
    Delay relative to video     : 32 ms
    Stream size                 : 4.15 GiB (10%)
    Language                    : English
    Default                     : No
    Forced                      : No
    Number of dynamic objects   : 13
    Bed channel count           : 1 channel
    Bed channel configuration   : LFE

    Audio #2
    ID                          : 3
    Format                      : AC-3
    Format/Info                 : Audio Coding 3
    Commercial name             : Dolby Digital
    Codec ID                    : A_AC3
    Duration                    : 1 h 33 min
    Bit rate mode               : Constant
    Bit rate                    : 640 kb/s
    Channel(s)                  : 6 channels
    Channel layout              : L R C LFE Ls Rs
    Sampling rate               : 48.0 kHz
    Frame rate                  : 31.250 FPS (1536 SPF)
    Compression mode            : Lossy
    Delay relative to video     : 31 ms
    Stream size                 : 429 MiB (1%)
    Language                    : English
    Service kind                : Complete Main
    Default                     : No
    Forced                      : No

    Audio #3
    ID                          : 4
    Format                      : E-AC-3
    Format/Info                 : Enhanced AC-3
    Commercial name             : Dolby Digital Plus
    Format profile              : Blu-ray Disc
    Codec ID                    : A_EAC3
    Duration                    : 1 h 33 min
    Bit rate mode               : Constant
    Bit rate                    : 896 kb/s
    Channel(s)                  : 6 channels
    Channel(s)_Original         : 8 channels
    ChannelLayout_Original      : L R C LFE Ls Rs Lrs Rrs
    Sampling rate               : 48.0 kHz
    Frame rate                  : 31.250 FPS (1536 SPF)
    Compression mode            : Lossy
    Stream size                 : 601 MiB (1%)
    Language                    : English
    Service kind                : Complete Main
    Default                     : No
    Forced                      : No

    Audio #4
    ID                          : 5
    Format                      : E-AC-3
    Format/Info                 : Enhanced AC-3
    Commercial name             : Dolby Digital Plus
    Format profile              : Blu-ray Disc
    Codec ID                    : A_EAC3
    Duration                    : 1 h 33 min
    Bit rate mode               : Constant
    Bit rate                    : 896 kb/s
    Channel(s)                  : 6 channels
    Channel(s)_Original         : 8 channels
    ChannelLayout_Original      : L R C LFE Ls Rs Lrs Rrs
    Sampling rate               : 48.0 kHz
    Frame rate                  : 31.250 FPS (1536 SPF)
    Compression mode            : Lossy
    Stream size                 : 601 MiB (1%)
    Language                    : Spanish
    Service kind                : Complete Main
    Default                     : Yes
    Forced                      : No

    Text
    ID                          : 6
    Format                      : PGS
    Muxing mode                 : zlib
    Codec ID                    : S_HDMV/PGS
    Codec ID/Info               : Picture based subtitle format used on BDs/HD-DVDs
    Duration                    : 1 h 24 min
    Bit rate                    : 14.3 kb/s
    Count of elements           : 954
    Stream size                 : 8.57 MiB (0%)
    Language                    : Spanish
    Default                     : No
    Forced                      : No

    Menu
    00:00:00.000                : en:Chapter 1
    00:03:37.967                : en:Chapter 2
    00:06:16.459                : en:Chapter 3
    00:08:14.160                : en:Chapter 4
    00:12:12.606                : en:Chapter 5
    00:14:33.914                : en:Chapter 6
    00:17:42.352                : en:Chapter 7
    00:21:10.644                : en:Chapter 8
    00:22:58.168                : en:Chapter 9
    00:26:41.057                : en:Chapter 10
    00:29:02.615                : en:Chapter 11
    00:33:10.363                : en:Chapter 12
    00:35:28.668                : en:Chapter 13
    00:38:14.458                : en:Chapter 14
    00:41:08.841                : en:Chapter 15
    00:45:42.948                : en:Chapter 16
    00:47:47.948                : en:Chapter 17
    00:51:48.271                : en:Chapter 18
    00:55:46.968                : en:Chapter 19
    01:00:22.952                : en:Chapter 20
    01:03:59.001                : en:Chapter 21
    01:05:27.214                : en:Chapter 22
    01:07:11.777                : en:Chapter 23
    01:11:06.428                : en:Chapter 24
    01:13:43.377                : en:Chapter 25
    01:16:01.431                : en:Chapter 26
    01:19:08.493                : en:Chapter 27
    01:23:56.865                : en:Chapter 28
    01:26:01.114                : en:Chapter 29

  • Peso: 42.1 GiB

Sinopsis

¿Qué hubiera pasado si el asteroide que cambió para siempre la vida en la Tierra no hubiese impactado en nuestro planeta? ¿Qué pasaría si los dinosaurios gigantes nunca se hubiesen extinguido? El viaje de Arlo nos traslada a un mundo donde el asteroide que terminó de forma dramática con los dinosaurios, pasa de largo. La consecuencia de este colosal cambio es que ahora los dinosaurios y los humanos tienen que vivir juntos en la Tierra.

 

Latino; E-AC3 7.1  –  Inglés; True HD 7.1

Ficha técnica

Video trailer de la película

Enlaces de descarga

Rip de Bluray

Descargar The Good Dinosaur (2015) REMUX 4K HDR Latino – CMHDD


Aportes de DPeliculasHDmega la pass es:dpeliculashdmega.org Aportes de CinemaniaHD la pass es:cinemaniahdd.com
Guardado en : Animación , Aventura , Familia

Películas relacionadas

descargar The Good Dinosaur (2015) REMUX 4K HDR Latino – CMHDD 4K HDR 1080p gratis, The Good Dinosaur (2015) REMUX 4K HDR Latino – CMHDD 4K HDR mega 1 link, The Good Dinosaur (2015) REMUX 4K HDR Latino – CMHDD 4K HDR pelicula completa, descargar The Good Dinosaur (2015) REMUX 4K HDR Latino – CMHDD 4K HDR gratis en mega.

The Good Dinosaur (2015) REMUX 4K HDR Latino – CMHDD pelicula full hd, The Good Dinosaur (2015) REMUX 4K HDR Latino – CMHDD mega latino, The Good Dinosaur (2015) REMUX 4K HDR Latino – CMHDD 4k latino, The Good Dinosaur (2015) REMUX 4K HDR Latino – CMHDD pelicula completa, The Good Dinosaur (2015) REMUX 4K HDR Latino – CMHDD descargar gratis, descargar The Good Dinosaur (2015) REMUX 4K HDR Latino – CMHDD pelicula latino, The Good Dinosaur (2015) REMUX 4K HDR Latino – CMHDD 1 link mega, The Good Dinosaur (2015) REMUX 4K HDR Latino – CMHDD 1 link google drive, The Good Dinosaur (2015) REMUX 4K HDR Latino – CMHDD hd 1080p latino.
Comentarios 0