×

¿Problemas para descargar con Mozilla, EDGE? Deshabilita la opción "Abrir vinculos en una pestaña nueva" tal como lo muestra ésta imagen.

The Godfather Part II (1974) REMUX 1080p Latino – CMHDD

754 vistas

Información de The Godfather Part II (1974) REMUX 1080p Latino – CMHDD

Datos de la película

  • Calidad: 4K HDR
  • Audio: Español Latino AC3 5.1 BLURAY - Ingles AC3 5.1 BLURAY
  • Subtitulos: Español Latino PGS
  • Resolución: 3840x2160p
  • Formato: MKV
  • Codec: H.264
  • Encoder: Dracarys
  • Mediainfo: Clic para Mostrar Datos Ver
  • Format                      : Matroska
    Format version              : Version 4
    File size                   : 71.8 GiB
    Duration                    : 3 h 20 min
    Overall bit rate mode       : Variable
    Overall bit rate            : 51.2 Mb/s
    Movie name                  : The Godfather Part II (1974) REMUX 1080p Latino - CMHDD
    Encoded date                : UTC 2022-04-13 22:32:58
    Writing application         : mkvmerge v17.0.0 ('Be Ur Friend') 64-bit
    Writing library             : libebml v1.3.5 + libmatroska v1.4.8

    Video
    ID                          : 1
    Format                      : HEVC
    Format/Info                 : High Efficiency Video Coding
    Format profile              : Main 10@L5.1@High
    HDR format                  : SMPTE ST 2086, HDR10 compatible
    Codec ID                    : V_MPEGH/ISO/HEVC
    Duration                    : 3 h 20 min
    Bit rate                    : 46.8 Mb/s
    Width                       : 3 840 pixels
    Height                      : 2 160 pixels
    Display aspect ratio        : 16:9
    Frame rate mode             : Constant
    Frame rate                  : 23.976 (24000/1001) FPS
    Color space                 : YUV
    Chroma subsampling          : 4:2:0 (Type 2)
    Bit depth                   : 10 bits
    Bits/(Pixel*Frame)          : 0.235
    Stream size                 : 65.6 GiB (91%)
    Default                     : Yes
    Forced                      : No
    Color range                 : Limited
    Color primaries             : BT.2020
    Transfer characteristics    : PQ
    Matrix coefficients         : BT.2020 non-constant
    Mastering display color pri : Display P3
    Mastering display luminance : min: 0.0001 cd/m2, max: 1000 cd/m2

    Audio #1
    ID                          : 2
    Format                      : MLP FBA
    Format/Info                 : Meridian Lossless Packing FBA
    Commercial name             : Dolby TrueHD
    Codec ID                    : A_TRUEHD
    Duration                    : 3 h 20 min
    Bit rate mode               : Variable
    Bit rate                    : 3 075 kb/s
    Maximum bit rate            : 4 896 kb/s
    Channel(s)                  : 6 channels
    Channel layout              : L R C LFE Ls Rs
    Sampling rate               : 48.0 kHz
    Frame rate                  : 1 200.000 FPS (40 SPF)
    Compression mode            : Lossless
    Stream size                 : 4.31 GiB (6%)
    Language                    : English
    Default                     : No
    Forced                      : No

    Audio #2
    ID                          : 3
    Format                      : AC-3
    Format/Info                 : Audio Coding 3
    Commercial name             : Dolby Digital
    Codec ID                    : A_AC3
    Duration                    : 3 h 20 min
    Bit rate mode               : Constant
    Bit rate                    : 640 kb/s
    Channel(s)                  : 6 channels
    Channel layout              : L R C LFE Ls Rs
    Sampling rate               : 48.0 kHz
    Frame rate                  : 31.250 FPS (1536 SPF)
    Compression mode            : Lossy
    Stream size                 : 918 MiB (1%)
    Language                    : English
    Service kind                : Complete Main
    Default                     : No
    Forced                      : No

    Audio #3
    ID                          : 4
    Format                      : AC-3
    Format/Info                 : Audio Coding 3
    Commercial name             : Dolby Digital
    Codec ID                    : A_AC3
    Duration                    : 3 h 20 min
    Bit rate mode               : Constant
    Bit rate                    : 640 kb/s
    Channel(s)                  : 6 channels
    Channel layout              : L R C LFE Ls Rs
    Sampling rate               : 48.0 kHz
    Frame rate                  : 31.250 FPS (1536 SPF)
    Compression mode            : Lossy
    Stream size                 : 918 MiB (1%)
    Language                    : Spanish
    Service kind                : Complete Main
    Default                     : Yes
    Forced                      : No

    Text
    ID                          : 5
    Format                      : PGS
    Muxing mode                 : zlib
    Codec ID                    : S_HDMV/PGS
    Codec ID/Info               : Picture based subtitle format used on BDs/HD-DVDs
    Duration                    : 3 h 19 min
    Bit rate                    : 27.7 kb/s
    Count of elements           : 2902
    Stream size                 : 39.5 MiB (0%)
    Language                    : Spanish
    Default                     : No
    Forced                      : No

    Menu
    00:00:00.000                : en:Chapter 1
    00:03:18.573                : en:Chapter 2
    00:07:07.885                : en:Chapter 3
    00:11:42.910                : en:Chapter 4
    00:15:56.330                : en:Chapter 5
    00:27:16.259                : en:Chapter 6
    00:34:06.335                : en:Chapter 7
    00:43:22.850                : en:Chapter 8
    00:49:10.656                : en:Chapter 9
    00:59:28.231                : en:Chapter 10
    01:12:30.179                : en:Chapter 11
    01:16:51.732                : en:Chapter 12
    01:25:57.026                : en:Chapter 13
    01:47:00.372                : en:Chapter 14
    01:49:55.088                : en:Chapter 15
    01:55:10.570                : en:Chapter 16
    02:06:28.831                : en:Chapter 17
    02:12:50.629                : en:Chapter 18
    02:20:28.628                : en:Chapter 19
    02:28:07.837                : en:Chapter 20
    02:33:14.101                : en:Chapter 21
    02:37:35.154                : en:Chapter 22
    02:43:43.563                : en:Chapter 23
    02:50:43.441                : en:Chapter 24
    02:56:21.779                : en:Chapter 25
    03:01:07.940                : en:Chapter 26
    03:04:55.459                : en:Chapter 27
    03:07:00.918                : en:Chapter 28
    03:11:36.568                : en:Chapter 29
    03:16:32.030                : en:Chapter 30

  • Peso: 71.8 GiB

Sinopsis

Continuación de la saga de los Corleone con dos historias paralelas: la elección de Michael Corleone como jefe de los negocios familiares y los orígenes del patriarca, el ya fallecido Don Vito, primero en Sicilia y luego en Estados Unidos, donde, empezando desde abajo, llegó a ser un poderosísimo jefe de la mafia de Nueva York.

Ficha técnica

Video trailer de la película

Enlaces de descarga

Rip de Bluray

Descargar The Godfather Part II (1974) REMUX 1080p Latino – CMHDD


Aportes de DPeliculasHDmega la pass es:dpeliculashdmega.org Aportes de CinemaniaHD la pass es:cinemaniahdd.com Aportes recientes:cinemaniahdd.net
Guardado en : Crimen , Drama

Películas relacionadas

descargar The Godfather Part II (1974) REMUX 1080p Latino – CMHDD 4K HDR 1080p gratis, The Godfather Part II (1974) REMUX 1080p Latino – CMHDD 4K HDR mega 1 link, The Godfather Part II (1974) REMUX 1080p Latino – CMHDD 4K HDR pelicula completa, descargar The Godfather Part II (1974) REMUX 1080p Latino – CMHDD 4K HDR gratis en mega.

The Godfather Part II (1974) REMUX 1080p Latino – CMHDD pelicula full hd, The Godfather Part II (1974) REMUX 1080p Latino – CMHDD mega latino, The Godfather Part II (1974) REMUX 1080p Latino – CMHDD 4k latino, The Godfather Part II (1974) REMUX 1080p Latino – CMHDD pelicula completa, The Godfather Part II (1974) REMUX 1080p Latino – CMHDD descargar gratis, descargar The Godfather Part II (1974) REMUX 1080p Latino – CMHDD pelicula latino, The Godfather Part II (1974) REMUX 1080p Latino – CMHDD 1 link mega, The Godfather Part II (1974) REMUX 1080p Latino – CMHDD 1 link google drive, The Godfather Part II (1974) REMUX 1080p Latino – CMHDD hd 1080p latino.
Comentarios 0