×

¿Problemas para descargar con Mozilla, EDGE? Deshabilita la opción "Abrir vinculos en una pestaña nueva" tal como lo muestra ésta imagen.

El Padrino Parte III, Epílogo: La muerte de Michael Corleone (1990) 1080p Latino

672 vistas

Información de El Padrino Parte III, Epílogo: La muerte de Michael Corleone (1990) 1080p Latino

Datos de la película

  • Calidad: 1080p
  • Audio: Español Latino AC3 5.1 BLURAY - Ingles AC3 5.1 BLURAY
  • Subtitulos: Español Latino SRT - Ingles SRT
  • Resolución: 1920x1036p
  • Formato: MKV
  • Codec: H.264
  • Encoder: CinefiloCool
  • Mediainfo: Clic para Mostrar Datos Ver
  • El Padrino de Mario Puzo Parte III Epílogo (1990) 1080p Latino-CMHDD.mkv
    Format                      : Matroska
    Format version              : Version 4
    File size                   : 5.61 GiB
    Duration                    : 2 h 37 min
    Overall bit rate            : 5 088 kb/s
    Movie name                  : The Godfather Coda - The Death Of Michael Corleone (1990) CinemaniaHDD.Net
    Encoded date                : UTC 2020-12-14 06:07:43
    Writing application         : mkvmerge v51.0.0 ('I Wish') 64-bit
    Writing library             : libebml v1.4.0 + libmatroska v1.6.2
    Attachments                 : CINEMANIAHD.png

    Video
    ID                          : 1
    Format                      : AVC
    Format/Info                 : Advanced Video Codec
    Format profile              : High@L4.1
    Format settings             : CABAC / 4 Ref Frames
    Format settings, CABAC      : Yes
    Format settings, Reference  : 4 frames
    Codec ID                    : V_MPEG4/ISO/AVC
    Duration                    : 2 h 37 min
    Bit rate                    : 4 000 kb/s
    Width                       : 1 920 pixels
    Height                      : 1 036 pixels
    Display aspect ratio        : 1.85:1
    Frame rate mode             : Constant
    Frame rate                  : 23.976 (24000/1001) FPS
    Color space                 : YUV
    Chroma subsampling          : 4:2:0
    Bit depth                   : 8 bits
    Scan type                   : Progressive
    Bits/(Pixel*Frame)          : 0.084
    Stream size                 : 4.41 GiB (79%)
    Title                       : HD1080p [CinemaniaHDD]
    Writing library             : x264 core 157 r2935 545de2f
    Encoding settings           : cabac=1 / ref=4 / deblock=1:-2:-2 / analyse=0x3:0x133 / me=umh / subme=9 / psy=1 / psy_rd=1.00:0.25 / mixed_ref=1 / me_range=16 / chroma_me=1 / trellis=2 / 8x8dct=1 / cqm=0 / deadzone=6,6 / fast_pskip=1 / chroma_qp_offset=-4 / threads=24 / lookahead_threads=2 / sliced_threads=0 / nr=0 / decimate=0 / interlaced=0 / bluray_compat=0 / constrained_intra=0 / bframes=3 / b_pyramid=2 / b_adapt=2 / b_bias=0 / direct=3 / weightb=1 / open_gop=0 / weightp=2 / keyint=240 / keyint_min=24 / scenecut=40 / intra_refresh=0 / rc_lookahead=60 / rc=2pass / mbtree=1 / bitrate=4000 / ratetol=1.0 / qcomp=0.80 / qpmin=0 / qpmax=69 / qpstep=4 / cplxblur=20.0 / qblur=0.5 / vbv_maxrate=62500 / vbv_bufsize=78125 / nal_hrd=none / filler=0 / ip_ratio=1.10 / aq=1:0.50
    Default                     : Yes
    Forced                      : No
    Color range                 : Limited
    Color primaries             : BT.709
    Transfer characteristics    : BT.709
    Matrix coefficients         : BT.709

    Audio #1
    ID                          : 2
    ID in the original source m : 4355 (0x1103)
    Format                      : AC-3
    Format/Info                 : Audio Coding 3
    Commercial name             : Dolby Digital
    Codec ID                    : A_AC3
    Duration                    : 2 h 37 min
    Bit rate mode               : Constant
    Bit rate                    : 640 kb/s
    Channel(s)                  : 6 channels
    Channel layout              : L R C LFE Ls Rs
    Sampling rate               : 48.0 kHz
    Frame rate                  : 31.250 FPS (1536 SPF)
    Compression mode            : Lossy
    Delay relative to video     : -5 ms
    Stream size                 : 723 MiB (13%)
    Title                       : Español Latino [CinemaniaHDD]
    Language                    : Spanish
    Service kind                : Complete Main
    Default                     : Yes
    Forced                      : No
    Original source medium      : Blu-ray

    Audio #2
    ID                          : 3
    Format                      : AC-3
    Format/Info                 : Audio Coding 3
    Commercial name             : Dolby Digital
    Codec ID                    : A_AC3
    Duration                    : 2 h 37 min
    Bit rate mode               : Constant
    Bit rate                    : 448 kb/s
    Channel(s)                  : 6 channels
    Channel layout              : L R C LFE Ls Rs
    Sampling rate               : 48.0 kHz
    Frame rate                  : 31.250 FPS (1536 SPF)
    Compression mode            : Lossy
    Delay relative to video     : -5 ms
    Stream size                 : 506 MiB (9%)
    Title                       : Ingles [CinemaniaHDD]
    Language                    : English
    Service kind                : Complete Main
    Default                     : No
    Forced                      : No

    Text #1
    ID                          : 4
    Format                      : UTF-8
    Codec ID                    : S_TEXT/UTF8
    Codec ID/Info               : UTF-8 Plain Text
    Duration                    : 2 h 30 min
    Bit rate                    : 39 b/s
    Count of elements           : 1271
    Stream size                 : 43.9 KiB (0%)
    Title                       : Forzados-SRT [CinemaniaHDD]
    Language                    : Spanish
    Default                     : Yes
    Forced                      : No

    Text #2
    ID                          : 5
    Format                      : UTF-8
    Codec ID                    : S_TEXT/UTF8
    Codec ID/Info               : UTF-8 Plain Text
    Duration                    : 2 h 30 min
    Bit rate                    : 0 b/s
    Count of elements           : 28
    Stream size                 : 929 Bytes (0%)
    Title                       : Español-SRT [CinemaniaHDD]
    Language                    : Spanish
    Default                     : No
    Forced                      : No

    Text #3
    ID                          : 6
    Format                      : UTF-8
    Codec ID                    : S_TEXT/UTF8
    Codec ID/Info               : UTF-8 Plain Text
    Duration                    : 2 h 26 min
    Bit rate                    : 42 b/s
    Count of elements           : 1261
    Stream size                 : 45.4 KiB (0%)
    Title                       : Ingles-SRT [CinemaniaHDD]
    Language                    : English
    Default                     : No
    Forced                      : No

    Menu
    00:00:00.000                : en:Chapter 01
    00:05:08.057                : en:Chapter 02
    00:13:37.525                : en:Chapter 03
    00:21:43.969                : en:Chapter 04
    00:31:26.676                : en:Chapter 05
    00:38:19.797                : en:Chapter 06
    00:43:50.753                : en:Chapter 07
    00:50:22.644                : en:Chapter 08
    00:58:08.526                : en:Chapter 09
    01:05:55.409                : en:Chapter 10
    01:09:47.808                : en:Chapter 11
    01:13:01.085                : en:Chapter 12
    01:16:35.090                : en:Chapter 13
    01:24:30.815                : en:Chapter 14
    01:29:19.145                : en:Chapter 15
    01:35:13.374                : en:Chapter 16
    01:39:23.415                : en:Chapter 17
    01:53:15.622                : en:Chapter 18
    01:55:53.196                : en:Chapter 19
    02:00:56.290                : en:Chapter 20
    02:06:15.818                : en:Chapter 21
    02:15:20.821                : en:Chapter 22
    02:24:13.895                : en:Chapter 23
    02:28:44.373                : en:Chapter 24
    02:30:21.429                : en:Chapter 25

  • Peso: 5.61 GiB

Sinopsis

Descargar El Padrino Parte III: Epílogo (1990) 1080p Latino. Michael Corleone, heredero del imperio de don Vito Corleone, intenta rehabilitarse socialmente y legitimar todas las posesiones de la familia negociando con el Vaticano. Después de luchar toda su vida se encuentra cansado y centra todas sus esperanzas en encontrar un sucesor que se haga cargo de los negocios. Vincent, el hijo ilegítimo de su hermano Sonny, parece ser el elegido.

Acerca De la pelicula:
En septiembre de 2020, en ocasión del aniversario número treinta del filme, se anunció que un nuevo corte, titulado Mario Puzo’s The Godfather, Coda: The Death of Michael Corleone (El Padrino de Mario Puzo, Epílogo: La muerte de Michael Corleone), iba a ser estrenado el 4 de diciembre de 2020, seguido de una edición en Blu-ray el 8 de diciembre. Coppola modificó el comienzo y el final, y reeditó escenas y la música, alcanzando un total de 158 minutos de duración, a diferencia de los 162 minutos del filme original.​ El director afirmó que esta es la versión que él y Puzo habían imaginado en un principio y que «reivindica» su estatus entre la trilogía y la actuación de su hija Sofia.​ Tanto Pacino como Keaton dieron su aprobación al nuevo montaje de la película y lo señalaron como una mejora con respecto a la película original.

Ficha técnica

Video trailer de la película

Enlaces de descarga

Rip de Bluray

Descargar El Padrino Parte III, Epílogo: La muerte de Michael Corleone (1990) 1080p Latino




Aportes de DPeliculasHDmega la pass es:dpeliculashdmega.org Aportes de CinemaniaHD la pass es:cinemaniahdd.com
Guardado en : Drama , Crimen , HD 1080p , Suspenso

Películas relacionadas

  • Un mundo extraño (2022) HD 1080p Latino

    Un mundo extraño (2022) HD 1080p Latino

    2022
    Un mundo extraño (2022) HD 1080p Latino

    1h 42m 2022

    Descargar Un mundo extraño (2022) HD 1080p Latino. Los Clades son una familia conocida en todo el mundo,...

    Director: Thai Bettistea

    Género: Animación

    Actores: Reed Buck

  • Lobo Vikingo (2022) NF WEB-DL 1080p Latino

    Lobo Vikingo (2022) NF WEB-DL 1080p Latino

    2022
    Lobo Vikingo (2022) NF WEB-DL 1080p Latino

    1h 38m 2022

    Descargar Lobo Vikingo (2022) NF WEB-DL 1080p Latino. Thale (17) acaba de mudarse con sus padres a un...

    Director: Stig Svendsen

    Género: Netflix

    Actores: Vidar Magnussen

  • Stromboli (2022) NF WEB-DL 1080p Latino

    Stromboli (2022) NF WEB-DL 1080p Latino

    2022
    Stromboli (2022) NF WEB-DL 1080p Latino

    1h 26m 2022

    Descargar Stromboli (2022) NF WEB-DL 1080p Latino. Sara, una mujer que se ha divorciado recientemente,...

    Director: Michiel van Erp

    Género: Drama

    Actores: Tim McInnerny

  • Infiesto (2023) NF WEB-DL 1080p Castellano

    Infiesto (2023) NF WEB-DL 1080p Castellano

    2023
    Infiesto (2023) NF WEB-DL 1080p Castellano

    1h 36m 2023

    Descargar Infiesto (2023) NF WEB-DL 1080p Castellano. Mientras el coronavirus trastoca sus vidas, dos...

    Director: Patxi Amezcua

    Género: Crimen

    Actores: Luis Zahera

descargar El Padrino Parte III, Epílogo: La muerte de Michael Corleone (1990) 1080p Latino 1080p 1080p gratis, El Padrino Parte III, Epílogo: La muerte de Michael Corleone (1990) 1080p Latino 1080p mega 1 link, El Padrino Parte III, Epílogo: La muerte de Michael Corleone (1990) 1080p Latino 1080p pelicula completa, descargar El Padrino Parte III, Epílogo: La muerte de Michael Corleone (1990) 1080p Latino 1080p gratis en mega.

El Padrino Parte III, Epílogo: La muerte de Michael Corleone (1990) 1080p Latino pelicula full hd, El Padrino Parte III, Epílogo: La muerte de Michael Corleone (1990) 1080p Latino mega latino, El Padrino Parte III, Epílogo: La muerte de Michael Corleone (1990) 1080p Latino 4k latino, El Padrino Parte III, Epílogo: La muerte de Michael Corleone (1990) 1080p Latino pelicula completa, El Padrino Parte III, Epílogo: La muerte de Michael Corleone (1990) 1080p Latino descargar gratis, descargar El Padrino Parte III, Epílogo: La muerte de Michael Corleone (1990) 1080p Latino pelicula latino, El Padrino Parte III, Epílogo: La muerte de Michael Corleone (1990) 1080p Latino 1 link mega, El Padrino Parte III, Epílogo: La muerte de Michael Corleone (1990) 1080p Latino 1 link google drive, El Padrino Parte III, Epílogo: La muerte de Michael Corleone (1990) 1080p Latino hd 1080p latino.
Comentarios 0