El Padrino Parte III, Epílogo: La muerte de Michael Corleone (1990) Full HD 1080p Latino

55 vistas
1 estrella2 estrellas3 estrellas4 estrellas5 estrellas (Ninguna valoración todavía)
Cargando...

Información de El Padrino Parte III, Epílogo: La muerte de Michael Corleone (1990) Full HD 1080p Latino

Datos de la película

  • Calidad: Full 1080p
  • Audio: Español Latino AC3 5.1 BLURAY - Ingles AC3 5.1 BLURAY
  • Subtitulos: Español Latino PGS - Ingles PGS
  • Resolución: 1920x1080p
  • Formato: MKV
  • Codec: H.264
  • Encoder: CinefiloCool
  • Mediainfo: Clic para Mostrar Datos Ver
  • El Padrino de Mario Puzo Parte III Epílogo (1990) Full HD 1080p Latino-CMHDD.mkv
    Format                      : Matroska
    Format version              : Version 4
    File size                   : 21.5 GiB
    Duration                    : 2 h 37 min
    Overall bit rate            : 19.5 Mb/s
    Movie name                  : The Godfather Coda - The Death Of Michael Corleone (1990) CinemaniaHDD.Net
    Encoded date                : UTC 2020-12-14 05:51:58
    Writing application         : mkvmerge v51.0.0 ('I Wish') 64-bit
    Writing library             : libebml v1.4.0 + libmatroska v1.6.2
    Attachments                 : CINEMANIAHD.png

    Video
    ID                          : 1
    Format                      : AVC
    Format/Info                 : Advanced Video Codec
    Format profile              : High@L4.1
    Format settings             : CABAC / 4 Ref Frames
    Format settings, CABAC      : Yes
    Format settings, Reference  : 4 frames
    Codec ID                    : V_MPEG4/ISO/AVC
    Duration                    : 2 h 37 min
    Bit rate                    : 18.2 Mb/s
    Width                       : 1 920 pixels
    Height                      : 1 080 pixels
    Display aspect ratio        : 16:9
    Frame rate mode             : Constant
    Frame rate                  : 23.976 (24000/1001) FPS
    Color space                 : YUV
    Chroma subsampling          : 4:2:0
    Bit depth                   : 8 bits
    Scan type                   : Progressive
    Bits/(Pixel*Frame)          : 0.366
    Stream size                 : 20.1 GiB (93%)
    Title                       : Full HD1080p [CinemaniaHDD]
    Writing library             : x264 core 157 r2935 545de2f
    Encoding settings           : cabac=1 / ref=4 / deblock=1:0:0 / analyse=0x3:0x133 / me=tesa / subme=11 / psy=1 / psy_rd=1.00:0.00 / mixed_ref=1 / me_range=24 / chroma_me=1 / trellis=2 / 8x8dct=1 / cqm=0 / deadzone=21,11 / fast_pskip=0 / chroma_qp_offset=-2 / threads=24 / lookahead_threads=6 / sliced_threads=0 / nr=0 / decimate=1 / interlaced=0 / bluray_compat=0 / constrained_intra=0 / bframes=16 / b_pyramid=2 / b_adapt=2 / b_bias=0 / direct=3 / weightb=1 / open_gop=0 / weightp=2 / keyint=240 / keyint_min=24 / scenecut=40 / intra_refresh=0 / rc_lookahead=60 / rc=crf / mbtree=1 / crf=20.0 / qcomp=0.60 / qpmin=0 / qpmax=69 / qpstep=4 / vbv_maxrate=62500 / vbv_bufsize=78125 / crf_max=0.0 / nal_hrd=none / filler=0 / ip_ratio=1.40 / aq=1:1.00
    Default                     : Yes
    Forced                      : Yes
    Color range                 : Limited
    Color primaries             : BT.709
    Transfer characteristics    : BT.709
    Matrix coefficients         : BT.709

    Audio #1
    ID                          : 2
    ID in the original source m : 4355 (0x1103)
    Format                      : AC-3
    Format/Info                 : Audio Coding 3
    Commercial name             : Dolby Digital
    Codec ID                    : A_AC3
    Duration                    : 2 h 37 min
    Bit rate mode               : Constant
    Bit rate                    : 640 kb/s
    Channel(s)                  : 6 channels
    Channel layout              : L R C LFE Ls Rs
    Sampling rate               : 48.0 kHz
    Frame rate                  : 31.250 FPS (1536 SPF)
    Compression mode            : Lossy
    Stream size                 : 723 MiB (3%)
    Title                       : Español Latino [CinemaniaHDD]
    Language                    : Spanish
    Service kind                : Complete Main
    Default                     : Yes
    Forced                      : Yes
    Original source medium      : Blu-ray

    Audio #2
    ID                          : 3
    ID in the original source m : 4352 (0x1100)
    Format                      : AC-3
    Format/Info                 : Audio Coding 3
    Commercial name             : Dolby Digital
    Codec ID                    : A_AC3
    Duration                    : 2 h 37 min
    Bit rate mode               : Constant
    Bit rate                    : 640 kb/s
    Channel(s)                  : 6 channels
    Channel layout              : L R C LFE Ls Rs
    Sampling rate               : 48.0 kHz
    Frame rate                  : 31.250 FPS (1536 SPF)
    Compression mode            : Lossy
    Stream size                 : 723 MiB (3%)
    Title                       : Ingles [CinemaniaHDD]
    Language                    : English
    Service kind                : Complete Main
    Default                     : No
    Forced                      : No
    Original source medium      : Blu-ray

    Text #1
    ID                          : 4
    Format                      : PGS
    Muxing mode                 : zlib
    Codec ID                    : S_HDMV/PGS
    Codec ID/Info               : Picture based subtitle format used on BDs/HD-DVDs
    Duration                    : 2 h 37 min
    Bit rate                    : 685 b/s
    Count of elements           : 58
    Stream size                 : 790 KiB (0%)
    Title                       : Forzados-PGS [CinemaniaHDD]
    Language                    : Spanish
    Default                     : Yes
    Forced                      : No

    Text #2
    ID                          : 5
    ID in the original source m : 4616 (0x1208)
    Format                      : PGS
    Muxing mode                 : zlib
    Codec ID                    : S_HDMV/PGS
    Codec ID/Info               : Picture based subtitle format used on BDs/HD-DVDs
    Duration                    : 2 h 37 min
    Bit rate                    : 30.7 kb/s
    Count of elements           : 2540
    Stream size                 : 34.5 MiB (0%)
    Title                       : Español-PGS [CinemaniaHDD]
    Language                    : Spanish
    Default                     : No
    Forced                      : No
    Original source medium      : Blu-ray

    Text #3
    ID                          : 6
    ID in the original source m : 4608 (0x1200)
    Format                      : PGS
    Muxing mode                 : zlib
    Codec ID                    : S_HDMV/PGS
    Codec ID/Info               : Picture based subtitle format used on BDs/HD-DVDs
    Duration                    : 2 h 26 min
    Bit rate                    : 35.1 kb/s
    Count of elements           : 2522
    Stream size                 : 36.8 MiB (0%)
    Title                       : Ingles-PGS [CinemaniaHDD]
    Language                    : English
    Default                     : No
    Forced                      : No
    Original source medium      : Blu-ray

    Text #4
    ID                          : 7
    Format                      : UTF-8
    Codec ID                    : S_TEXT/UTF8
    Codec ID/Info               : UTF-8 Plain Text
    Duration                    : 2 h 30 min
    Bit rate                    : 39 b/s
    Count of elements           : 1271
    Stream size                 : 43.9 KiB (0%)
    Title                       : Forzados-SRT [CinemaniaHDD]
    Language                    : Spanish
    Default                     : No
    Forced                      : No

    Text #5
    ID                          : 8
    Format                      : UTF-8
    Codec ID                    : S_TEXT/UTF8
    Codec ID/Info               : UTF-8 Plain Text
    Duration                    : 2 h 30 min
    Bit rate                    : 0 b/s
    Count of elements           : 28
    Stream size                 : 929 Bytes (0%)
    Title                       : Español-SRT [CinemaniaHDD]
    Language                    : Spanish
    Default                     : No
    Forced                      : No

    Menu
    00:00:00.000                : en:Chapter 01
    00:05:08.057                : en:Chapter 02
    00:13:37.525                : en:Chapter 03
    00:21:43.969                : en:Chapter 04
    00:31:26.676                : en:Chapter 05
    00:38:19.797                : en:Chapter 06
    00:43:50.753                : en:Chapter 07
    00:50:22.644                : en:Chapter 08
    00:58:08.526                : en:Chapter 09
    01:05:55.409                : en:Chapter 10
    01:09:47.808                : en:Chapter 11
    01:13:01.085                : en:Chapter 12
    01:16:35.090                : en:Chapter 13
    01:24:30.815                : en:Chapter 14
    01:29:19.145                : en:Chapter 15
    01:35:13.374                : en:Chapter 16
    01:39:23.415                : en:Chapter 17
    01:53:15.622                : en:Chapter 18
    01:55:53.196                : en:Chapter 19
    02:00:56.290                : en:Chapter 20
    02:06:15.818                : en:Chapter 21
    02:15:20.821                : en:Chapter 22
    02:24:13.895                : en:Chapter 23
    02:28:44.373                : en:Chapter 24
    02:30:21.429                : en:Chapter 25

  • Peso: 21.5 GiB

Sinopsis

Descargar El Padrino Parte III: Epílogo (1990) Full HD 1080p Latino. Michael Corleone, heredero del imperio de don Vito Corleone, intenta rehabilitarse socialmente y legitimar todas las posesiones de la familia negociando con el Vaticano. Después de luchar toda su vida se encuentra cansado y centra todas sus esperanzas en encontrar un sucesor que se haga cargo de los negocios. Vincent, el hijo ilegítimo de su hermano Sonny, parece ser el elegido.

Acerca De la pelicula:
En septiembre de 2020, en ocasión del aniversario número treinta del filme, se anunció que un nuevo corte, titulado Mario Puzo’s The Godfather, Coda: The Death of Michael Corleone (El Padrino de Mario Puzo, Epílogo: La muerte de Michael Corleone), iba a ser estrenado el 4 de diciembre de 2020, seguido de una edición en Blu-ray el 8 de diciembre. Coppola modificó el comienzo y el final, y reeditó escenas y la música, alcanzando un total de 158 minutos de duración, a diferencia de los 162 minutos del filme original.​ El director afirmó que esta es la versión que él y Puzo habían imaginado en un principio y que «reivindica» su estatus entre la trilogía y la actuación de su hija Sofia.​ Tanto Pacino como Keaton dieron su aprobación al nuevo montaje de la película y lo señalaron como una mejora con respecto a la película original.

Ficha técnica

Video trailer de la película

Enlaces de descarga

Rip de Bluray

Descargar El Padrino Parte III, Epílogo: La muerte de Michael Corleone (1990) Full HD 1080p Latino




Aportes de DPeliculasHDmega la pass es:dpeliculashdmega.org Aportes de CinemaniaHD la pass es:cinemaniahdd.com

Películas relacionadas

  • Cobra Kai (2019) Temporada 02 REMUX 1080p Latino

    Cobra Kai (2019) Temporada 02 REMUX 1080p Latino

    2018
    Cobra Kai (2019) Temporada 02 REMUX 1080p Latino

    5.0 0h 30m 2018

    Descargar Cobra Kai (2019) Temporada 02 REMUX 1080p Latino. La segunda temporada continúa con la...

    Director: Josh Heald

    Género: Drama

    Actores: Xolo Mariduena

  • Cobra Kai (2018) Temporada 01 REMUX 1080p Latino

    Cobra Kai (2018) Temporada 01 REMUX 1080p Latino

    2018
    Cobra Kai (2018) Temporada 01 REMUX 1080p Latino

    5.0 0h 30m 2018

    Descargar Cobra Kai (2018) Temporada 01 REMUX 1080p Latino. La serie sigue la historia 34 años después...

    Director: Josh Heald

    Género: Drama

    Actores: Xolo Mariduena

  • El día del fin del mundo (2020) HD 1080p Latino

    El día del fin del mundo (2020) HD 1080p Latino

    2020
    El día del fin del mundo (2020) HD 1080p Latino

    0.0 1h 59m 2020

    Descargar El día del fin del mundo (2020) HD 1080p Latino. Un matrimonio a punto de separarse debe tratar...

    Director: Ric Roman Waugh

    Género: Acción

    Actores: Tracey Bonner

  • El día del fin del mundo (2020) REMUX 1080p Latino

    El día del fin del mundo (2020) REMUX 1080p Latino

    2020
    El día del fin del mundo (2020) REMUX 1080p Latino

    5.0 1h 59m 2020

    Descargar El día del fin del mundo (2020) REMUX 1080p Latino. Un matrimonio a punto de separarse debe...

    Director: Ric Roman Waugh

    Género: Acción

    Actores: Tracey Bonner

Comentarios 0