×

¿Problemas para descargar con Mozilla, EDGE? Deshabilita la opción "Abrir vinculos en una pestaña nueva" tal como lo muestra ésta imagen.

El Padrino: Parte II (1974) REMUX 1080p Latino

510 vistas

Información de El Padrino: Parte II (1974) REMUX 1080p Latino

Datos de la película

  • Calidad: Full 1080p
  • Audio: Se especifica abajo de la Sinopsis
  • Subtitulos: Español Latino PGS - Ingles PGS
  • Resolución: 1920x1080p
  • Formato: MKV
  • Codec: H.264
  • Encoder: CinefiloCool
  • Mediainfo: Clic para Mostrar Datos Ver
  • El padrino Parte II (1974) REMUX 1080p Latino-CMHDD.mkv
    Format                      : Matroska
    Format version              : Version 4
    File size                   : 39.0 GiB
    Duration                    : 3 h 22 min
    Overall bit rate mode       : Variable
    Overall bit rate            : 27.6 Mb/s
    Movie name                  : The Godfather Part II (1974) CinemaniaHDD.Net
    Encoded date                : UTC 2020-08-05 02:19:24
    Writing application         : mkvmerge v46.0.0 ('No Deeper Escape') 64-bit
    Writing library             : libebml v1.3.10 + libmatroska v1.5.2
    Attachments                 : CINEMANIAHD.png

    Video
    ID                          : 1
    Format                      : AVC
    Format/Info                 : Advanced Video Codec
    Format profile              : High@L4.1
    Format settings             : CABAC / 4 Ref Frames
    Format settings, CABAC      : Yes
    Format settings, Reference  : 4 frames
    Codec ID                    : V_MPEG4/ISO/AVC
    Duration                    : 3 h 22 min
    Bit rate mode               : Variable
    Bit rate                    : 22.4 Mb/s
    Maximum bit rate            : 38.0 Mb/s
    Width                       : 1 920 pixels
    Height                      : 1 080 pixels
    Display aspect ratio        : 16:9
    Frame rate mode             : Constant
    Frame rate                  : 23.976 (24000/1001) FPS
    Color space                 : YUV
    Chroma subsampling          : 4:2:0
    Bit depth                   : 8 bits
    Scan type                   : Progressive
    Bits/(Pixel*Frame)          : 0.451
    Stream size                 : 31.6 GiB (81%)
    Title                       : REMUX 1080p [CinemaniaHDD]
    Default                     : Yes
    Forced                      : Yes
    Color range                 : Limited
    Color primaries             : BT.709
    Transfer characteristics    : BT.709
    Matrix coefficients         : BT.709

    Audio #1
    ID                          : 2
    Format                      : AC-3
    Format/Info                 : Audio Coding 3
    Commercial name             : Dolby Digital
    Codec ID                    : A_AC3
    Duration                    : 3 h 22 min
    Bit rate mode               : Constant
    Bit rate                    : 640 kb/s
    Channel(s)                  : 6 channels
    Channel layout              : L R C LFE Ls Rs
    Sampling rate               : 48.0 kHz
    Frame rate                  : 31.250 FPS (1536 SPF)
    Compression mode            : Lossy
    Stream size                 : 925 MiB (2%)
    Title                       : Español Latino REDOBLAJE [CinemaniaHDD]
    Language                    : Spanish
    Service kind                : Complete Main
    Default                     : Yes
    Forced                      : Yes

    Audio #2
    ID                          : 3
    Format                      : AC-3
    Format/Info                 : Audio Coding 3
    Commercial name             : Dolby Digital
    Codec ID                    : A_AC3
    Duration                    : 3 h 20 min
    Bit rate mode               : Constant
    Bit rate                    : 256 kb/s
    Channel(s)                  : 2 channels
    Channel layout              : L R
    Sampling rate               : 48.0 kHz
    Frame rate                  : 31.250 FPS (1536 SPF)
    Compression mode            : Lossy
    Delay relative to video     : 250 ms
    Stream size                 : 368 MiB (1%)
    Title                       : Español Latino ORIGINAL [CinemaniaHDD]
    Language                    : Spanish
    Service kind                : Complete Main
    Default                     : No
    Forced                      : No

    Audio #3
    ID                          : 4
    Format                      : MLP FBA
    Format/Info                 : Meridian Lossless Packing FBA
    Commercial name             : Dolby TrueHD
    Codec ID                    : A_TRUEHD
    Duration                    : 3 h 22 min
    Bit rate mode               : Variable
    Bit rate                    : 3 592 kb/s
    Maximum bit rate            : 5 643 kb/s
    Channel(s)                  : 6 channels
    Channel layout              : L R C LFE Ls Rs
    Sampling rate               : 48.0 kHz
    Frame rate                  : 1 200.000 FPS (40 SPF)
    Compression mode            : Lossless
    Stream size                 : 5.07 GiB (13%)
    Title                       : Ingles [CinemaniaHDD]
    Language                    : English
    Default                     : No
    Forced                      : No

    Audio #4
    ID                          : 5
    Format                      : AC-3
    Format/Info                 : Audio Coding 3
    Commercial name             : Dolby Digital
    Codec ID                    : A_AC3
    Duration                    : 3 h 22 min
    Bit rate mode               : Constant
    Bit rate                    : 640 kb/s
    Channel(s)                  : 6 channels
    Channel layout              : L R C LFE Ls Rs
    Sampling rate               : 48.0 kHz
    Frame rate                  : 31.250 FPS (1536 SPF)
    Compression mode            : Lossy
    Stream size                 : 925 MiB (2%)
    Title                       : Ingles CORE AC3 [CinemaniaHDD]
    Language                    : English
    Service kind                : Complete Main
    Default                     : No
    Forced                      : No

    Text #1
    ID                          : 6
    Format                      : PGS
    Muxing mode                 : zlib
    Codec ID                    : S_HDMV/PGS
    Codec ID/Info               : Picture based subtitle format used on BDs/HD-DVDs
    Duration                    : 2 h 59 min
    Bit rate                    : 6 271 b/s
    Count of elements           : 616
    Stream size                 : 8.05 MiB (0%)
    Title                       : Forzados-PGS [CinemaniaHDD]
    Language                    : Spanish
    Default                     : Yes
    Forced                      : Yes

    Text #2
    ID                          : 7
    Format                      : PGS
    Muxing mode                 : zlib
    Codec ID                    : S_HDMV/PGS
    Codec ID/Info               : Picture based subtitle format used on BDs/HD-DVDs
    Duration                    : 3 h 14 min
    Bit rate                    : 31.2 kb/s
    Count of elements           : 2892
    Stream size                 : 43.4 MiB (0%)
    Title                       : Español-PGS [CinemaniaHDD]
    Language                    : Spanish
    Default                     : No
    Forced                      : No

    Text #3
    ID                          : 8
    Format                      : PGS
    Muxing mode                 : zlib
    Codec ID                    : S_HDMV/PGS
    Codec ID/Info               : Picture based subtitle format used on BDs/HD-DVDs
    Duration                    : 3 h 13 min
    Bit rate                    : 35.5 kb/s
    Count of elements           : 3004
    Stream size                 : 49.1 MiB (0%)
    Title                       : Ingles-PGS [CinemaniaHDD]
    Language                    : English
    Default                     : No
    Forced                      : No

    Text #4
    ID                          : 9
    Format                      : UTF-8
    Codec ID                    : S_TEXT/UTF8
    Codec ID/Info               : UTF-8 Plain Text
    Duration                    : 3 h 14 min
    Bit rate                    : 7 b/s
    Count of elements           : 327
    Stream size                 : 10.9 KiB (0%)
    Title                       : Forzados-SRT [CinemaniaHDD]
    Language                    : Spanish
    Default                     : No
    Forced                      : No

    Text #5
    ID                          : 10
    Format                      : UTF-8
    Codec ID                    : S_TEXT/UTF8
    Codec ID/Info               : UTF-8 Plain Text
    Duration                    : 3 h 14 min
    Bit rate                    : 41 b/s
    Count of elements           : 1655
    Stream size                 : 59.6 KiB (0%)
    Title                       : Español-SRT [CinemaniaHDD]
    Language                    : Spanish
    Default                     : No
    Forced                      : No

    Menu
    00:00:00.000                : en:Chapter 01
    00:03:40.429                : en:Chapter 02
    00:07:29.741                : en:Chapter 03
    00:12:04.766                : en:Chapter 04
    00:16:18.186                : en:Chapter 05
    00:27:38.115                : en:Chapter 06
    00:34:28.316                : en:Chapter 07
    00:43:44.831                : en:Chapter 08
    00:49:32.636                : en:Chapter 09
    00:59:50.087                : en:Chapter 10
    01:12:52.159                : en:Chapter 11
    01:17:13.671                : en:Chapter 12
    01:26:19.007                : en:Chapter 13
    01:47:22.353                : en:Chapter 14
    01:50:16.944                : en:Chapter 15
    01:55:32.426                : en:Chapter 16
    02:06:50.812                : en:Chapter 17
    02:13:12.485                : en:Chapter 18
    02:20:50.484                : en:Chapter 19
    02:28:29.818                : en:Chapter 20
    02:33:35.957                : en:Chapter 21
    02:37:57.051                : en:Chapter 22
    02:44:08.630                : en:Chapter 23
    02:51:08.508                : en:Chapter 24
    02:56:46.805                : en:Chapter 25
    03:01:32.882                : en:Chapter 26
    03:05:20.401                : en:Chapter 27
    03:07:25.860                : en:Chapter 28
    03:12:01.510                : en:Chapter 29
    03:16:56.972                : en:Chapter 30

  • Peso: 39.0 GiB

Sinopsis

Descargar El Padrino: Parte II (1974) REMUX 1080p Latino. Continuación de la saga de los Corleone con dos historias paralelas: la elección de Michael Corleone como jefe de los negocios familiares y los orígenes del patriarca, el ya fallecido Don Vito, primero en Sicilia y luego en Estados Unidos, donde, empezando desde abajo, llegó a ser un poderosísimo jefe de la mafia de Nueva York.

Audio Español Latino AC3 2.0 Original + AC3 5.1 Redoblaje – Ingles TrueHD + AC3 5.1 Bluray

Ficha técnica

Video trailer de la película

Enlaces de descarga

Rip de Bluray

Descargar El Padrino: Parte II (1974) REMUX 1080p Latino




Aportes de DPeliculasHDmega la pass es:dpeliculashdmega.org Aportes de CinemaniaHD la pass es:cinemaniahdd.com
Guardado en : Crimen , Drama , Remux

Películas relacionadas

descargar El Padrino: Parte II (1974) REMUX 1080p Latino Full 1080p 1080p gratis, El Padrino: Parte II (1974) REMUX 1080p Latino Full 1080p mega 1 link, El Padrino: Parte II (1974) REMUX 1080p Latino Full 1080p pelicula completa, descargar El Padrino: Parte II (1974) REMUX 1080p Latino Full 1080p gratis en mega.

El Padrino: Parte II (1974) REMUX 1080p Latino pelicula full hd, El Padrino: Parte II (1974) REMUX 1080p Latino mega latino, El Padrino: Parte II (1974) REMUX 1080p Latino 4k latino, El Padrino: Parte II (1974) REMUX 1080p Latino pelicula completa, El Padrino: Parte II (1974) REMUX 1080p Latino descargar gratis, descargar El Padrino: Parte II (1974) REMUX 1080p Latino pelicula latino, El Padrino: Parte II (1974) REMUX 1080p Latino 1 link mega, El Padrino: Parte II (1974) REMUX 1080p Latino 1 link google drive, El Padrino: Parte II (1974) REMUX 1080p Latino hd 1080p latino.
Comentarios 0