×

¿Problemas para descargar con Mozilla, EDGE? Deshabilita la opción "Abrir vinculos en una pestaña nueva" tal como lo muestra ésta imagen.

The Godfather (1972) REMUX 4K HDR Latino – CMHDD

524 vistas

Información de The Godfather (1972) REMUX 4K HDR Latino – CMHDD

Datos de la película

  • Calidad: 4K HDR
  • Audio: Español Latino AC3 5.1 BLURAY - Ingles AC3 5.1 BLURAY
  • Subtitulos: Español Latino PGS
  • Resolución: 3840x2160p
  • Formato: MKV
  • Codec: H.264
  • Encoder: Dracarys
  • Mediainfo: Clic para Mostrar Datos Ver
  • Format                      : Matroska
    Format version              : Version 4
    File size                   : 71.3 GiB
    Duration                    : 2 h 55 min
    Overall bit rate mode       : Variable
    Overall bit rate            : 58.1 Mb/s
    Movie name                  : The Godfather (1972) REMUX 4K HDR Latino - CMHDD
    Encoded date                : UTC 2022-04-13 21:47:06
    Writing application         : mkvmerge v17.0.0 ('Be Ur Friend') 64-bit
    Writing library             : libebml v1.3.5 + libmatroska v1.4.8

    Video
    ID                          : 1
    Format                      : HEVC
    Format/Info                 : High Efficiency Video Coding
    Format profile              : Main 10@L5.1@High
    HDR format                  : SMPTE ST 2086, HDR10 compatible
    Codec ID                    : V_MPEGH/ISO/HEVC
    Duration                    : 2 h 55 min
    Bit rate                    : 53.3 Mb/s
    Width                       : 3 840 pixels
    Height                      : 2 160 pixels
    Display aspect ratio        : 16:9
    Frame rate mode             : Constant
    Frame rate                  : 23.976 (24000/1001) FPS
    Color space                 : YUV
    Chroma subsampling          : 4:2:0 (Type 2)
    Bit depth                   : 10 bits
    Bits/(Pixel*Frame)          : 0.268
    Stream size                 : 65.3 GiB (92%)
    Default                     : Yes
    Forced                      : No
    Color range                 : Limited
    Color primaries             : BT.2020
    Transfer characteristics    : PQ
    Matrix coefficients         : BT.2020 non-constant
    Mastering display color pri : Display P3
    Mastering display luminance : min: 0.0001 cd/m2, max: 1000 cd/m2

    Audio #1
    ID                          : 2
    Format                      : MLP FBA
    Format/Info                 : Meridian Lossless Packing FBA
    Commercial name             : Dolby TrueHD
    Codec ID                    : A_TRUEHD
    Duration                    : 2 h 55 min
    Bit rate mode               : Variable
    Bit rate                    : 3 517 kb/s
    Maximum bit rate            : 4 932 kb/s
    Channel(s)                  : 6 channels
    Channel layout              : L R C LFE Ls Rs
    Sampling rate               : 48.0 kHz
    Frame rate                  : 1 200.000 FPS (40 SPF)
    Compression mode            : Lossless
    Stream size                 : 4.31 GiB (6%)
    Language                    : English
    Default                     : No
    Forced                      : No

    Audio #2
    ID                          : 3
    Format                      : AC-3
    Format/Info                 : Audio Coding 3
    Commercial name             : Dolby Digital
    Codec ID                    : A_AC3
    Duration                    : 2 h 55 min
    Bit rate mode               : Constant
    Bit rate                    : 640 kb/s
    Channel(s)                  : 6 channels
    Channel layout              : L R C LFE Ls Rs
    Sampling rate               : 48.0 kHz
    Frame rate                  : 31.250 FPS (1536 SPF)
    Compression mode            : Lossy
    Stream size                 : 803 MiB (1%)
    Language                    : English
    Service kind                : Complete Main
    Default                     : No
    Forced                      : No

    Audio #3
    ID                          : 4
    Format                      : AC-3
    Format/Info                 : Audio Coding 3
    Commercial name             : Dolby Digital
    Codec ID                    : A_AC3
    Duration                    : 2 h 55 min
    Bit rate mode               : Constant
    Bit rate                    : 640 kb/s
    Channel(s)                  : 6 channels
    Channel layout              : L R C LFE Ls Rs
    Sampling rate               : 48.0 kHz
    Frame rate                  : 31.250 FPS (1536 SPF)
    Compression mode            : Lossy
    Stream size                 : 803 MiB (1%)
    Language                    : Spanish
    Service kind                : Complete Main
    Default                     : Yes
    Forced                      : No

    Text
    ID                          : 5
    Format                      : PGS
    Muxing mode                 : zlib
    Codec ID                    : S_HDMV/PGS
    Codec ID/Info               : Picture based subtitle format used on BDs/HD-DVDs
    Duration                    : 2 h 54 min
    Bit rate                    : 27.2 kb/s
    Count of elements           : 2562
    Stream size                 : 34.0 MiB (0%)
    Language                    : Spanish
    Default                     : No
    Forced                      : No

    Menu
    00:00:00.000                : en:Chapter 1
    00:07:05.466                : en:Chapter 2
    00:17:38.307                : en:Chapter 3
    00:26:38.138                : en:Chapter 4
    00:33:54.866                : en:Chapter 5
    00:39:52.431                : en:Chapter 6
    00:48:26.987                : en:Chapter 7
    00:57:53.011                : en:Chapter 8
    01:08:19.261                : en:Chapter 9
    01:15:23.685                : en:Chapter 10
    01:29:35.370                : en:Chapter 11
    01:36:41.545                : en:Chapter 12
    01:45:52.846                : en:Chapter 13
    01:49:04.871                : en:Chapter 14
    01:53:32.347                : en:Chapter 15
    02:02:55.993                : en:Chapter 16
    02:06:11.939                : en:Chapter 17
    02:13:02.808                : en:Chapter 18
    02:19:22.145                : en:Chapter 19
    02:25:31.389                : en:Chapter 20
    02:36:30.714                : en:Chapter 21
    02:44:18.223                : en:Chapter 22
    02:52:40.433                : en:Chapter 23
     

  • Peso: 71.3 GiB

Sinopsis

Don Vito Corleone, conocido dentro de los círculos del hampa como ‘El Padrino’, es el patriarca de una de las cinco familias que ejercen el mando de la Cosa Nostra en Nueva York en los años cuarenta. Don Corleone tiene cuatro hijos: una chica, Connie, y tres varones; Sonny, Michael y Fredo. Cuando el Padrino reclina intervenir en el negocio de estupefacientes, empieza una cruenta lucha de violentos episodios entre las distintas familias del crimen organizado.

Ficha técnica

Video trailer de la película

Enlaces de descarga

Rip de Bluray

Descargar The Godfather (1972) REMUX 4K HDR Latino – CMHDD


Aportes de DPeliculasHDmega la pass es:dpeliculashdmega.org Aportes de CinemaniaHD la pass es:cinemaniahdd.com
Guardado en : Crimen , Drama

Películas relacionadas

descargar The Godfather (1972) REMUX 4K HDR Latino – CMHDD 4K HDR 1080p gratis, The Godfather (1972) REMUX 4K HDR Latino – CMHDD 4K HDR mega 1 link, The Godfather (1972) REMUX 4K HDR Latino – CMHDD 4K HDR pelicula completa, descargar The Godfather (1972) REMUX 4K HDR Latino – CMHDD 4K HDR gratis en mega.

The Godfather (1972) REMUX 4K HDR Latino – CMHDD pelicula full hd, The Godfather (1972) REMUX 4K HDR Latino – CMHDD mega latino, The Godfather (1972) REMUX 4K HDR Latino – CMHDD 4k latino, The Godfather (1972) REMUX 4K HDR Latino – CMHDD pelicula completa, The Godfather (1972) REMUX 4K HDR Latino – CMHDD descargar gratis, descargar The Godfather (1972) REMUX 4K HDR Latino – CMHDD pelicula latino, The Godfather (1972) REMUX 4K HDR Latino – CMHDD 1 link mega, The Godfather (1972) REMUX 4K HDR Latino – CMHDD 1 link google drive, The Godfather (1972) REMUX 4K HDR Latino – CMHDD hd 1080p latino.
Comentarios 0