×

¿Problemas para descargar con Mozilla, EDGE? Deshabilita la opción "Abrir vinculos en una pestaña nueva" tal como lo muestra ésta imagen.

El Padrino: Parte I (1972) REMUX 1080p Latino

544 vistas

Información de El Padrino: Parte I (1972) REMUX 1080p Latino

Datos de la película

  • Calidad: Full 1080p
  • Audio: Se especifica abajo de la Sinopsis
  • Subtitulos: Español Latino PGS - Ingles PGS
  • Resolución: 1920x1080p
  • Formato: MKV
  • Codec: H.264
  • Encoder: CinefiloCool
  • Mediainfo: Clic para Mostrar Datos Ver
  • El padrino Parte I (1972) REMUX 1080p Latino-CMHDD.mkv
    Format                      : Matroska
    Format version              : Version 4
    File size                   : 39.7 GiB
    Duration                    : 2 h 57 min
    Overall bit rate mode       : Variable
    Overall bit rate            : 32.1 Mb/s
    Movie name                  : The Godfather Part I (1972) CinemaniaHDD.Net
    Encoded date                : UTC 2020-08-05 02:53:44
    Writing application         : mkvmerge v46.0.0 ('No Deeper Escape') 64-bit
    Writing library             : libebml v1.3.10 + libmatroska v1.5.2
    Attachments                 : CINEMANIAHD.png

    Video
    ID                          : 1
    Format                      : AVC
    Format/Info                 : Advanced Video Codec
    Format profile              : High@L4.1
    Format settings             : CABAC / 4 Ref Frames
    Format settings, CABAC      : Yes
    Format settings, Reference  : 4 frames
    Codec ID                    : V_MPEG4/ISO/AVC
    Duration                    : 2 h 57 min
    Bit rate mode               : Variable
    Bit rate                    : 27.0 Mb/s
    Maximum bit rate            : 38.3 Mb/s
    Width                       : 1 920 pixels
    Height                      : 1 080 pixels
    Display aspect ratio        : 16:9
    Frame rate mode             : Constant
    Frame rate                  : 23.976 (24000/1001) FPS
    Color space                 : YUV
    Chroma subsampling          : 4:2:0
    Bit depth                   : 8 bits
    Scan type                   : Progressive
    Bits/(Pixel*Frame)          : 0.543
    Stream size                 : 33.4 GiB (84%)
    Title                       : REMUX 1080p [CinemaniaHDD]
    Default                     : Yes
    Forced                      : Yes
    Color range                 : Limited
    Color primaries             : BT.709
    Transfer characteristics    : BT.709
    Matrix coefficients         : BT.709

    Audio #1
    ID                          : 2
    Format                      : AC-3
    Format/Info                 : Audio Coding 3
    Commercial name             : Dolby Digital
    Codec ID                    : A_AC3
    Duration                    : 2 h 57 min
    Bit rate mode               : Constant
    Bit rate                    : 640 kb/s
    Channel(s)                  : 6 channels
    Channel layout              : L R C LFE Ls Rs
    Sampling rate               : 48.0 kHz
    Frame rate                  : 31.250 FPS (1536 SPF)
    Compression mode            : Lossy
    Delay relative to video     : 19 ms
    Stream size                 : 811 MiB (2%)
    Title                       : Español Latino REDOBLAJE [CinemaniaHDD]
    Language                    : Spanish
    Service kind                : Complete Main
    Default                     : Yes
    Forced                      : Yes

    Audio #2
    ID                          : 3
    Format                      : AC-3
    Format/Info                 : Audio Coding 3
    Commercial name             : Dolby Digital
    Codec ID                    : A_AC3
    Duration                    : 2 h 57 min
    Bit rate mode               : Constant
    Bit rate                    : 192 kb/s
    Channel(s)                  : 2 channels
    Channel layout              : L R
    Sampling rate               : 44.1 kHz
    Frame rate                  : 28.711 FPS (1536 SPF)
    Compression mode            : Lossy
    Delay relative to video     : 19 ms
    Stream size                 : 243 MiB (1%)
    Title                       : Español Latino ORIGINAL [CinemaniaHDD]
    Language                    : Spanish
    Service kind                : Complete Main
    Default                     : No
    Forced                      : No

    Audio #3
    ID                          : 4
    Format                      : MLP FBA
    Format/Info                 : Meridian Lossless Packing FBA
    Commercial name             : Dolby TrueHD
    Codec ID                    : A_TRUEHD
    Duration                    : 2 h 57 min
    Bit rate mode               : Variable
    Bit rate                    : 3 557 kb/s
    Maximum bit rate            : 5 445 kb/s
    Channel(s)                  : 6 channels
    Channel layout              : L R C LFE Ls Rs
    Sampling rate               : 48.0 kHz
    Frame rate                  : 1 200.000 FPS (40 SPF)
    Compression mode            : Lossless
    Stream size                 : 4.40 GiB (11%)
    Title                       : Ingles [CinemaniaHDD]
    Language                    : English
    Default                     : No
    Forced                      : No

    Audio #4
    ID                          : 5
    Format                      : AC-3
    Format/Info                 : Audio Coding 3
    Commercial name             : Dolby Digital
    Codec ID                    : A_AC3
    Duration                    : 2 h 57 min
    Bit rate mode               : Constant
    Bit rate                    : 640 kb/s
    Channel(s)                  : 6 channels
    Channel layout              : L R C LFE Ls Rs
    Sampling rate               : 48.0 kHz
    Frame rate                  : 31.250 FPS (1536 SPF)
    Compression mode            : Lossy
    Stream size                 : 811 MiB (2%)
    Title                       : Ingles CORE AC3 [CinemaniaHDD]
    Language                    : English
    Service kind                : Complete Main
    Default                     : No
    Forced                      : No

    Text #1
    ID                          : 6
    Format                      : PGS
    Muxing mode                 : zlib
    Codec ID                    : S_HDMV/PGS
    Codec ID/Info               : Picture based subtitle format used on BDs/HD-DVDs
    Duration                    : 2 h 48 min
    Bit rate                    : 1 731 b/s
    Count of elements           : 168
    Stream size                 : 2.08 MiB (0%)
    Title                       : Forzados-PGS [CinemaniaHDD]
    Language                    : Spanish
    Default                     : Yes
    Forced                      : Yes

    Text #2
    ID                          : 7
    Format                      : PGS
    Muxing mode                 : zlib
    Codec ID                    : S_HDMV/PGS
    Codec ID/Info               : Picture based subtitle format used on BDs/HD-DVDs
    Duration                    : 2 h 51 min
    Bit rate                    : 30.4 kb/s
    Count of elements           : 2558
    Stream size                 : 37.4 MiB (0%)
    Title                       : Español-PGS [CinemaniaHDD]
    Language                    : Spanish
    Default                     : No
    Forced                      : No

    Text #3
    ID                          : 8
    Format                      : PGS
    Muxing mode                 : zlib
    Codec ID                    : S_HDMV/PGS
    Codec ID/Info               : Picture based subtitle format used on BDs/HD-DVDs
    Duration                    : 2 h 51 min
    Bit rate                    : 35.2 kb/s
    Count of elements           : 2624
    Stream size                 : 43.2 MiB (0%)
    Title                       : Ingles-PGS [CinemaniaHDD]
    Language                    : English
    Default                     : No
    Forced                      : No

    Text #4
    ID                          : 9
    Format                      : UTF-8
    Codec ID                    : S_TEXT/UTF8
    Codec ID/Info               : UTF-8 Plain Text
    Duration                    : 2 h 48 min
    Bit rate                    : 1 b/s
    Count of elements           : 84
    Stream size                 : 2.45 KiB (0%)
    Title                       : Forzados-SRT [CinemaniaHDD]
    Language                    : Spanish
    Default                     : No
    Forced                      : No

    Text #5
    ID                          : 10
    Format                      : UTF-8
    Codec ID                    : S_TEXT/UTF8
    Codec ID/Info               : UTF-8 Plain Text
    Duration                    : 2 h 51 min
    Bit rate                    : 37 b/s
    Count of elements           : 1287
    Stream size                 : 47.1 KiB (0%)
    Title                       : Español-SRT [CinemaniaHDD]
    Language                    : Spanish
    Default                     : No
    Forced                      : No

    Menu
    00:00:00.000                : :Chapter 1
    00:07:30.784                : :Chapter 2
    00:18:03.624                : :Chapter 3
    00:27:03.455                : :Chapter 4
    00:34:20.183                : :Chapter 5
    00:40:17.749                : :Chapter 6
    00:48:52.304                : :Chapter 7
    00:58:18.328                : :Chapter 8
    01:08:44.579                : :Chapter 9
    01:15:49.003                : :Chapter 10
    01:30:00.687                : :Chapter 11
    01:37:06.863                : :Chapter 12
    01:46:18.163                : :Chapter 13
    01:49:30.189                : :Chapter 14
    01:53:57.664                : :Chapter 15
    02:03:21.311                : :Chapter 16
    02:06:37.256                : :Chapter 17
    02:13:28.125                : :Chapter 18
    02:19:47.462                : :Chapter 19
    02:25:56.706                : :Chapter 20
    02:36:56.032                : :Chapter 21
    02:44:43.540                : :Chapter 22
    02:53:05.750                : :Chapter 23

  • Peso: 39.7 GiB

Sinopsis

Descargar El Padrino: Parte I (1972) REMUX 1080p Latino. Don Vito Corleone (Marlon Brando) es el respetado y temido jefe de una de las cinco familias de la mafia de Nueva York. Tiene cuatro hijos: una chica, Connie (Talia Shire), y tres varones: el impulsivo Sonny (James Caan), el pusilánime Freddie (John Cazale) y Michael (Al Pacino), que no quiere saber nada de los negocios de su padre. Cuando Corleone, siempre aconsejado por su consejero Tom Hagen (Robert Duvall), se niega a intervenir en el negocio de las drogas, el jefe de otra banda ordena su asesinato. Empieza entonces una violenta y cruenta guerra entre las familias mafiosas.

Audio Español Latino AC3 2.0 Original + AC3 5.1 Redoblaje – Ingles TrueHD + AC3 5.1 Bluray

Ficha técnica

Video trailer de la película

Enlaces de descarga

Rip de Bluray

Descargar El Padrino: Parte I (1972) REMUX 1080p Latino




Aportes de DPeliculasHDmega la pass es:dpeliculashdmega.org Aportes de CinemaniaHD la pass es:cinemaniahdd.com
Guardado en : Crimen , Drama , Remux

Películas relacionadas

  • Togo (2022) NF WEB-DL 1080p Latino

    Togo (2022) NF WEB-DL 1080p Latino

    2022
    Togo (2022) NF WEB-DL 1080p Latino

    1h 35m 2022

    Descargar Togo (2022) NF WEB-DL 1080p Latino. Los narcos de poca monta están copando las calles de Montevideo...

    Director: Adrián Caetano

    Género: Crimen

    Actores: Tito Prieto

  • El Ultimo Juego (2021) WEB-DL 1080p Latino

    El Ultimo Juego (2021) WEB-DL 1080p Latino

    2021
    El Ultimo Juego (2021) WEB-DL 1080p Latino

    1h 21m 2021

    Descargar El Ultimo Juego (2021) WEB-DL 1080p Latino. 6 extraños se despiertan dentro de una habitación...

    Director: John David Moffat IV

    Género: Drama

    Actores: Yasmin Irvine

descargar El Padrino: Parte I (1972) REMUX 1080p Latino Full 1080p 1080p gratis, El Padrino: Parte I (1972) REMUX 1080p Latino Full 1080p mega 1 link, El Padrino: Parte I (1972) REMUX 1080p Latino Full 1080p pelicula completa, descargar El Padrino: Parte I (1972) REMUX 1080p Latino Full 1080p gratis en mega.

El Padrino: Parte I (1972) REMUX 1080p Latino pelicula full hd, El Padrino: Parte I (1972) REMUX 1080p Latino mega latino, El Padrino: Parte I (1972) REMUX 1080p Latino 4k latino, El Padrino: Parte I (1972) REMUX 1080p Latino pelicula completa, El Padrino: Parte I (1972) REMUX 1080p Latino descargar gratis, descargar El Padrino: Parte I (1972) REMUX 1080p Latino pelicula latino, El Padrino: Parte I (1972) REMUX 1080p Latino 1 link mega, El Padrino: Parte I (1972) REMUX 1080p Latino 1 link google drive, El Padrino: Parte I (1972) REMUX 1080p Latino hd 1080p latino.
Comentarios 0