×

¿Problemas para descargar con Mozilla, EDGE? Deshabilita la opción "Abrir vinculos en una pestaña nueva" tal como lo muestra ésta imagen.

El Padrino: Parte I (1972) 1080p Latino

3.236 vistas

Información de El Padrino: Parte I (1972) 1080p Latino

Datos de la película

  • Calidad: 1080p
  • Audio: Español Latino AC3 5.1 BLURAY - Ingles AC3 5.1 BLURAY
  • Subtitulos: Español Latino SRT - Ingles SRT
  • Resolución: 1920x1080p
  • Formato: MKV
  • Codec: H.264
  • Encoder: CinefiloCool
  • Mediainfo: Clic para Mostrar Datos Ver
  • El padrino Parte I (1972) 1080p Latino-CMHDD.mkv
    Format                      : Matroska
    Format version              : Version 4
    File size                   : 5.84 GiB
    Duration                    : 2 h 57 min
    Overall bit rate            : 4 721 kb/s
    Movie name                  : The Godfather Part I (1972) CinemaniaHDD.Net
    Encoded date                : UTC 2020-08-05 01:33:53
    Writing application         : mkvmerge v46.0.0 ('No Deeper Escape') 64-bit
    Writing library             : libebml v1.3.10 + libmatroska v1.5.2
    Attachments                 : CINEMANIAHD.png

    Video
    ID                          : 1
    Format                      : AVC
    Format/Info                 : Advanced Video Codec
    Format profile              : High@L4.1
    Format settings             : CABAC / 4 Ref Frames
    Format settings, CABAC      : Yes
    Format settings, Reference  : 4 frames
    Codec ID                    : V_MPEG4/ISO/AVC
    Duration                    : 2 h 57 min
    Bit rate                    : 3 500 kb/s
    Width                       : 1 920 pixels
    Height                      : 1 080 pixels
    Display aspect ratio        : 16:9
    Frame rate mode             : Constant
    Frame rate                  : 23.976 (24000/1001) FPS
    Color space                 : YUV
    Chroma subsampling          : 4:2:0
    Bit depth                   : 8 bits
    Scan type                   : Progressive
    Bits/(Pixel*Frame)          : 0.070
    Stream size                 : 4.26 GiB (73%)
    Title                       : HD1080p [CinemaniaHDD]
    Writing library             : x264 core 157 r2935 545de2f
    Encoding settings           : cabac=1 / ref=4 / deblock=1:-2:-2 / analyse=0x3:0x133 / me=umh / subme=9 / psy=1 / psy_rd=1.00:0.25 / mixed_ref=1 / me_range=16 / chroma_me=1 / trellis=2 / 8x8dct=1 / cqm=0 / deadzone=6,6 / fast_pskip=1 / chroma_qp_offset=-4 / threads=24 / lookahead_threads=2 / sliced_threads=0 / nr=0 / decimate=0 / interlaced=0 / bluray_compat=0 / constrained_intra=0 / bframes=3 / b_pyramid=2 / b_adapt=2 / b_bias=0 / direct=3 / weightb=1 / open_gop=0 / weightp=2 / keyint=240 / keyint_min=24 / scenecut=40 / intra_refresh=0 / rc_lookahead=60 / rc=abr / mbtree=1 / bitrate=3500 / ratetol=1.0 / qcomp=0.80 / qpmin=0 / qpmax=69 / qpstep=4 / vbv_maxrate=62500 / vbv_bufsize=78125 / nal_hrd=none / filler=0 / ip_ratio=1.10 / aq=1:0.50
    Default                     : Yes
    Forced                      : Yes
    Color range                 : Limited
    Color primaries             : BT.709
    Transfer characteristics    : BT.709
    Matrix coefficients         : BT.709

    Audio #1
    ID                          : 2
    Format                      : AC-3
    Format/Info                 : Audio Coding 3
    Commercial name             : Dolby Digital
    Codec ID                    : A_AC3
    Duration                    : 2 h 57 min
    Bit rate mode               : Constant
    Bit rate                    : 640 kb/s
    Channel(s)                  : 6 channels
    Channel layout              : L R C LFE Ls Rs
    Sampling rate               : 48.0 kHz
    Frame rate                  : 31.250 FPS (1536 SPF)
    Compression mode            : Lossy
    Delay relative to video     : 14 ms
    Stream size                 : 811 MiB (14%)
    Title                       : Español Latino REDOBLAJE [CinemaniaHDD]
    Language                    : Spanish
    Service kind                : Complete Main
    Default                     : Yes
    Forced                      : Yes

    Audio #2
    ID                          : 3
    Format                      : AC-3
    Format/Info                 : Audio Coding 3
    Commercial name             : Dolby Digital
    Codec ID                    : A_AC3
    Duration                    : 2 h 57 min
    Bit rate mode               : Constant
    Bit rate                    : 192 kb/s
    Channel(s)                  : 2 channels
    Channel layout              : L R
    Sampling rate               : 44.1 kHz
    Frame rate                  : 28.711 FPS (1536 SPF)
    Compression mode            : Lossy
    Delay relative to video     : 14 ms
    Stream size                 : 243 MiB (4%)
    Title                       : Español Latino ORIGINAL [CinemaniaHDD]
    Language                    : Spanish
    Service kind                : Complete Main
    Default                     : No
    Forced                      : No

    Audio #3
    ID                          : 4
    Format                      : AC-3
    Format/Info                 : Audio Coding 3
    Commercial name             : Dolby Digital
    Codec ID                    : A_AC3
    Duration                    : 2 h 57 min
    Bit rate mode               : Constant
    Bit rate                    : 448 kb/s
    Channel(s)                  : 6 channels
    Channel layout              : L R C LFE Ls Rs
    Sampling rate               : 48.0 kHz
    Frame rate                  : 31.250 FPS (1536 SPF)
    Compression mode            : Lossy
    Delay relative to video     : -5 ms
    Stream size                 : 568 MiB (9%)
    Title                       : Ingles [CinemaniaHDD]
    Language                    : English
    Service kind                : Complete Main
    Default                     : No
    Forced                      : No

    Text #1
    ID                          : 5
    Format                      : UTF-8
    Codec ID                    : S_TEXT/UTF8
    Codec ID/Info               : UTF-8 Plain Text
    Duration                    : 2 h 48 min
    Bit rate                    : 1 b/s
    Count of elements           : 84
    Stream size                 : 2.45 KiB (0%)
    Title                       : Forzados-SRT [CinemaniaHDD]
    Language                    : Spanish
    Default                     : Yes
    Forced                      : Yes

    Text #2
    ID                          : 6
    Format                      : UTF-8
    Codec ID                    : S_TEXT/UTF8
    Codec ID/Info               : UTF-8 Plain Text
    Duration                    : 2 h 51 min
    Bit rate                    : 37 b/s
    Count of elements           : 1287
    Stream size                 : 47.1 KiB (0%)
    Title                       : Español-SRT [CinemaniaHDD]
    Language                    : Spanish
    Default                     : No
    Forced                      : No

    Text #3
    ID                          : 7
    Format                      : UTF-8
    Codec ID                    : S_TEXT/UTF8
    Codec ID/Info               : UTF-8 Plain Text
    Duration                    : 2 h 51 min
    Bit rate                    : 42 b/s
    Count of elements           : 1306
    Stream size                 : 53.3 KiB (0%)
    Title                       : Ingles-SRT [CinemaniaHDD]
    Language                    : English
    Default                     : No
    Forced                      : No

    Menu
    00:00:00.000                : :Chapter 1
    00:07:30.784                : :Chapter 2
    00:18:03.624                : :Chapter 3
    00:27:03.455                : :Chapter 4
    00:34:20.183                : :Chapter 5
    00:40:17.749                : :Chapter 6
    00:48:52.304                : :Chapter 7
    00:58:18.328                : :Chapter 8
    01:08:44.579                : :Chapter 9
    01:15:49.003                : :Chapter 10
    01:30:00.687                : :Chapter 11
    01:37:06.863                : :Chapter 12
    01:46:18.163                : :Chapter 13
    01:49:30.189                : :Chapter 14
    01:53:57.664                : :Chapter 15
    02:03:21.311                : :Chapter 16
    02:06:37.256                : :Chapter 17
    02:13:28.125                : :Chapter 18
    02:19:47.462                : :Chapter 19
    02:25:56.706                : :Chapter 20
    02:36:56.032                : :Chapter 21
    02:44:43.540                : :Chapter 22
    02:53:05.750                : :Chapter 23

  • Peso: 5.84 GB

Sinopsis

Descargar El Padrino: Parte I (1972) 1080p Latino. Don Vito Corleone, conocido dentro de los círculos del hampa como «El Padrino», es el patriarca de una de las cinco familias que ejercen el mando de la Cosa Nostra en Nueva York en los años 40. Don Corleone tiene cuatro hijos; una chica, Connie, y tres varones, Sonny, Michael y Freddie, al que envían exiliado a Las Vegas, dada su incapacidad para asumir puestos de mando en la «Familia». Cuando el Padrino reclina intervenir en el negocio de estupefacientes, empieza una cruenta lucha de violentos episodios entre las distintas familias del crimen organizado.

Audio Español Latino AC3 2.0 Original + AC3 5.1 Redoblaje – Ingles AC3 5.1 Bluray

Ficha técnica

Video trailer de la película

Enlaces de descarga

Rip de Bluray

Descargar El Padrino: Parte I (1972) 1080p Latino




Aportes de DPeliculasHDmega la pass es:dpeliculashdmega.org Aportes de CinemaniaHD la pass es:cinemaniahdd.com
Guardado en : Crimen , Drama , HD 1080p

Películas relacionadas

descargar El Padrino: Parte I (1972) 1080p Latino 1080p 1080p gratis, El Padrino: Parte I (1972) 1080p Latino 1080p mega 1 link, El Padrino: Parte I (1972) 1080p Latino 1080p pelicula completa, descargar El Padrino: Parte I (1972) 1080p Latino 1080p gratis en mega.

El Padrino: Parte I (1972) 1080p Latino pelicula full hd, El Padrino: Parte I (1972) 1080p Latino mega latino, El Padrino: Parte I (1972) 1080p Latino 4k latino, El Padrino: Parte I (1972) 1080p Latino pelicula completa, El Padrino: Parte I (1972) 1080p Latino descargar gratis, descargar El Padrino: Parte I (1972) 1080p Latino pelicula latino, El Padrino: Parte I (1972) 1080p Latino 1 link mega, El Padrino: Parte I (1972) 1080p Latino 1 link google drive, El Padrino: Parte I (1972) 1080p Latino hd 1080p latino.
Comentarios 0