The Girlfriend Experience (2021) Temporada 03 AMZN Web-DL 1080p Latino

76 vistas
1 estrella2 estrellas3 estrellas4 estrellas5 estrellas (3 votos, promedio: 5,00 de 5)
Cargando...

Información de The Girlfriend Experience (2021) Temporada 03 AMZN Web-DL 1080p Latino

Datos de la película

  • Calidad: WEBDL
  • Audio: Español Latino E-AC3 5.1 AMAZON - Ingles E-AC3 5.1 AMAZON
  • Subtitulos: Español Latino SRT - Ingles SRT
  • Resolución: 1920x1080p
  • Formato: MKV
  • Codec: H.264
  • Encoder: cinemaniahdd
  • Mediainfo: Clic para Mostrar Datos Ver
  • The Girlfriend Experience T03E03 AMZN WEB-DL 1080p Latino [CNMNHDD].mkv
    Format                      : Matroska
    Format version              : Version 4
    File size                   : 1.29 GiB
    Duration                    : 28 min 54 s
    Overall bit rate            : 6 410 kb/s
    Movie name                  : The Girlfriend Experience T03E03 - CinemaniaHDD.Net
    Encoded date                : UTC 2021-05-16 22:55:45
    Writing application         : mkvmerge v56.1.0 ('My Friend') 64-bit
    Writing library             : libebml v1.4.2 + libmatroska v1.6.4

    Video
    ID                          : 1
    Format                      : AVC
    Format/Info                 : Advanced Video Codec
    Format profile              : High@L4
    Format settings             : CABAC / 4 Ref Frames
    Format settings, CABAC      : Yes
    Format settings, Reference  : 4 frames
    Codec ID                    : V_MPEG4/ISO/AVC
    Duration                    : 28 min 54 s
    Bit rate mode               : Constant
    Bit rate                    : 4 487 kb/s
    Nominal bit rate            : 10 000 kb/s
    Width                       : 1 920 pixels
    Height                      : 1 080 pixels
    Display aspect ratio        : 16:9
    Frame rate mode             : Constant
    Frame rate                  : 23.976 (24000/1001) FPS
    Color space                 : YUV
    Chroma subsampling          : 4:2:0
    Bit depth                   : 8 bits
    Scan type                   : Progressive
    Bits/(Pixel*Frame)          : 0.090
    Stream size                 : 928 MiB (70%)
    Title                       : CinemaniaHDD
    Default                     : Yes
    Forced                      : No
    Color range                 : Limited
    Color primaries             : BT.709
    Transfer characteristics    : BT.709
    Matrix coefficients         : BT.709

    Audio #1
    ID                          : 2
    Format                      : AC-3
    Format/Info                 : Audio Coding 3
    Commercial name             : Dolby Digital
    Codec ID                    : A_AC3
    Duration                    : 28 min 54 s
    Bit rate mode               : Constant
    Bit rate                    : 640 kb/s
    Channel(s)                  : 6 channels
    Channel layout              : L R C LFE Ls Rs
    Sampling rate               : 48.0 kHz
    Frame rate                  : 31.250 FPS (1536 SPF)
    Compression mode            : Lossy
    Stream size                 : 132 MiB (10%)
    Title                       : Español latino - AC3 [CinemaniaHDD]
    Language                    : Spanish
    Service kind                : Complete Main
    Default                     : Yes
    Forced                      : No

    Audio #2
    ID                          : 3
    Format                      : E-AC-3
    Format/Info                 : Enhanced AC-3
    Commercial name             : Dolby Digital Plus
    Codec ID                    : A_EAC3
    Duration                    : 28 min 54 s
    Bit rate mode               : Constant
    Bit rate                    : 640 kb/s
    Channel(s)                  : 6 channels
    Channel layout              : L R C LFE Ls Rs
    Sampling rate               : 48.0 kHz
    Frame rate                  : 31.250 FPS (1536 SPF)
    Compression mode            : Lossy
    Stream size                 : 132 MiB (10%)
    Title                       : Español latino - E-AC3 [CinemaniaHDD]
    Language                    : Spanish
    Service kind                : Complete Main
    Default                     : No
    Forced                      : No

    Audio #3
    ID                          : 4
    Format                      : E-AC-3
    Format/Info                 : Enhanced AC-3
    Commercial name             : Dolby Digital Plus
    Codec ID                    : A_EAC3
    Duration                    : 28 min 54 s
    Bit rate mode               : Constant
    Bit rate                    : 640 kb/s
    Channel(s)                  : 6 channels
    Channel layout              : L R C LFE Ls Rs
    Sampling rate               : 48.0 kHz
    Frame rate                  : 31.250 FPS (1536 SPF)
    Compression mode            : Lossy
    Delay relative to video     : 30 ms
    Stream size                 : 132 MiB (10%)
    Title                       : Inglés - E-AC3 [CinemaniaHDD]
    Language                    : English
    Service kind                : Complete Main
    Default                     : No
    Forced                      : No

    Text #1
    ID                          : 5
    Format                      : UTF-8
    Codec ID                    : S_TEXT/UTF8
    Codec ID/Info               : UTF-8 Plain Text
    Duration                    : 15 min 30 s
    Bit rate                    : 0 b/s
    Count of elements           : 2
    Stream size                 : 56.0 Bytes (0%)
    Title                       : Forzados [CinemaniaHDD]
    Language                    : Spanish
    Default                     : Yes
    Forced                      : Yes

    Text #2
    ID                          : 6
    Format                      : UTF-8
    Codec ID                    : S_TEXT/UTF8
    Codec ID/Info               : UTF-8 Plain Text
    Duration                    : 26 min 22 s
    Bit rate                    : 60 b/s
    Count of elements           : 398
    Stream size                 : 11.7 KiB (0%)
    Title                       : Español latino [CinemaniaHDD]
    Language                    : Spanish
    Default                     : No
    Forced                      : No

    Text #3
    ID                          : 7
    Format                      : UTF-8
    Codec ID                    : S_TEXT/UTF8
    Codec ID/Info               : UTF-8 Plain Text
    Duration                    : 26 min 35 s
    Bit rate                    : 67 b/s
    Count of elements           : 470
    Stream size                 : 13.2 KiB (0%)
    Title                       : Inglés [CC] [CinemaniaHDD]
    Language                    : English
    Default                     : No
    Forced                      : No

     

  • Peso: 1.40 GiB Aprox C/U. 7 CAPITULOS DISPONIBLES

Sinopsis

Descargar The Girlfriend Experience (2021) Temporada 03 AMZN Web-DL 1080p Latino. La tercera entrega de The Girlfriend Experience se ubica en medio de la escena tecnológica de Londres y se enfoca en Iris, una estudiante de neurociencia que comienza a explorar el mundo de The Girlfriend Experience. Pronto se da cuenta de que esto le puede proporcionar ventajas en el campo tecnológico y explorará si sus acciones se deben al libre albedrío o por algo distinto.

8 Capitulos Disponibles!!

Ficha técnica

  • Titulo original: The Girlfriend Experience
  • Fecha de lanzamiento: 10-04-2016 (US)
  • Director: Amy Seimetz, Lodge Kerrigan
  • Género: Drama, Series
  • Puntuación: 5.0 3 votos
  • Duración:
    0h 30m

Video trailer de la película

Enlaces de descarga

Rip de Bluray

Descargar The Girlfriend Experience (2021) Temporada 03 AMZN Web-DL 1080p Latino




Aportes de DPeliculasHDmega la pass es:dpeliculashdmega.org Aportes de CinemaniaHD la pass es:cinemaniahdd.com
Guardado en : Drama , Series

Películas relacionadas

The Girlfriend Experience (2021) Temporada 03 AMZN Web-DL 1080p Latino pelicula full hd, The Girlfriend Experience (2021) Temporada 03 AMZN Web-DL 1080p Latino mega latino, The Girlfriend Experience (2021) Temporada 03 AMZN Web-DL 1080p Latino 4k latino, The Girlfriend Experience (2021) Temporada 03 AMZN Web-DL 1080p Latino pelicula completa, The Girlfriend Experience (2021) Temporada 03 AMZN Web-DL 1080p Latino descargar gratis, descargar The Girlfriend Experience (2021) Temporada 03 AMZN Web-DL 1080p Latino pelicula latino, The Girlfriend Experience (2021) Temporada 03 AMZN Web-DL 1080p Latino 1 link mega, The Girlfriend Experience (2021) Temporada 03 AMZN Web-DL 1080p Latino 1 link google drive, The Girlfriend Experience (2021) Temporada 03 AMZN Web-DL 1080p Latino hd 1080p latino.
Comentarios 0