×

¿Problemas para descargar con Mozilla, EDGE? Deshabilita la opción "Abrir vinculos en una pestaña nueva" tal como lo muestra ésta imagen.

The Girlfriend Experience (2017) Temporada 02 AMZN Web-DL 1080p Latino

269 vistas

Información de The Girlfriend Experience (2017) Temporada 02 AMZN Web-DL 1080p Latino

Datos de la película

  • Calidad: WEBDL
  • Audio: Español Latino AC3 2.0 WEB-DL - Ingles AC3 5.1 WEB-DL
  • Subtitulos: Español Latino SRT - Ingles SRT
  • Resolución: 1920x1080p
  • Formato: MKV
  • Codec: H.264
  • Encoder: CinemaniaHD
  • Mediainfo: Clic para Mostrar Datos Ver
  • The Girlfriend Experience S02E01 (2017) AMZN Web-DL 1080p Latino.mkv
    Format                      : Matroska
    Format version              : Version 4
    File size                   : 1.45 GiB
    Duration                    : 24 min 36 s
    Overall bit rate            : 8 420 kb/s
    Movie name                  : CinemaniaHDD.Net
    Encoded date                : UTC 2021-05-05 05:35:09
    Writing application         : mkvmerge v56.1.0 ('My Friend') 64-bit
    Writing library             : libebml v1.4.2 + libmatroska v1.6.4
    Attachments                 : CINEMANIAHD.png

    Video
    ID                          : 1
    Format                      : AVC
    Format/Info                 : Advanced Video Codec
    Format profile              : High@L4
    Format settings             : CABAC / 4 Ref Frames
    Format settings, CABAC      : Yes
    Format settings, Reference  : 4 frames
    Codec ID                    : V_MPEG4/ISO/AVC
    Duration                    : 24 min 36 s
    Bit rate mode               : Constant
    Bit rate                    : 7 554 kb/s
    Nominal bit rate            : 10 000 kb/s
    Width                       : 1 920 pixels
    Height                      : 1 080 pixels
    Display aspect ratio        : 16:9
    Frame rate mode             : Constant
    Frame rate                  : 23.976 (24000/1001) FPS
    Color space                 : YUV
    Chroma subsampling          : 4:2:0
    Bit depth                   : 8 bits
    Scan type                   : Progressive
    Bits/(Pixel*Frame)          : 0.152
    Stream size                 : 1.30 GiB (90%)
    Title                       : WEB HD1080p [CinemaniaHDD]
    Language                    : English
    Default                     : Yes
    Forced                      : No
    Color range                 : Limited
    Color primaries             : BT.709
    Transfer characteristics    : BT.709
    Matrix coefficients         : BT.709

    Audio #1
    ID                          : 2
    Format                      : E-AC-3
    Format/Info                 : Enhanced AC-3
    Commercial name             : Dolby Digital Plus
    Codec ID                    : A_EAC3
    Duration                    : 24 min 36 s
    Bit rate mode               : Constant
    Bit rate                    : 224 kb/s
    Channel(s)                  : 2 channels
    Channel layout              : L R
    Sampling rate               : 48.0 kHz
    Frame rate                  : 31.250 FPS (1536 SPF)
    Compression mode            : Lossy
    Stream size                 : 39.4 MiB (3%)
    Title                       : Español Latino [CinemaniaHDD]
    Language                    : Spanish
    Service kind                : Complete Main
    Default                     : Yes
    Forced                      : No

    Audio #2
    ID                          : 3
    Format                      : E-AC-3
    Format/Info                 : Enhanced AC-3
    Commercial name             : Dolby Digital Plus
    Codec ID                    : A_EAC3
    Duration                    : 24 min 36 s
    Bit rate mode               : Constant
    Bit rate                    : 640 kb/s
    Channel(s)                  : 6 channels
    Channel layout              : L R C LFE Ls Rs
    Sampling rate               : 48.0 kHz
    Frame rate                  : 31.250 FPS (1536 SPF)
    Compression mode            : Lossy
    Stream size                 : 113 MiB (8%)
    Title                       : Ingles [CinemaniaHDD]
    Language                    : English
    Service kind                : Complete Main
    Default                     : No
    Forced                      : No

    Text #1
    ID                          : 4
    Format                      : UTF-8
    Codec ID                    : S_TEXT/UTF8
    Codec ID/Info               : UTF-8 Plain Text
    Duration                    : 22 min 0 s
    Bit rate                    : 69 b/s
    Count of elements           : 355
    Stream size                 : 11.3 KiB (0%)
    Title                       : Español-SRT [CinemaniaHDD]
    Language                    : Spanish
    Default                     : No
    Forced                      : No

    Text #2
    ID                          : 5
    Format                      : UTF-8
    Codec ID                    : S_TEXT/UTF8
    Codec ID/Info               : UTF-8 Plain Text
    Duration                    : 23 min 46 s
    Bit rate                    : 72 b/s
    Count of elements           : 404
    Stream size                 : 12.7 KiB (0%)
    Title                       : Ingles-SRT [CinemaniaHDD]
    Language                    : English
    Default                     : No
    Forced                      : No

  • Peso: 1.7 GiB Aprox C/U. | 23.90 GiB Total

Sinopsis

Descargar The Girlfriend Experience (2017) Temporada 02 AMZN Web-DL 1080p Latino. En la segunda temporada se cuentan dos historias paralelas con episodios intercalados.

Erica & Anna

La primera historia, ambientada en Washington D.C., se lleva a cabo durante las elecciones de medio término de los Estados Unidos y sigue a Erica Myles (Anna Friel), la directora financiera de un Comité de acción política republicano, y a Anna Garner (Louisa Krause), una joven pero experimentada acompañante. Bajo una intensa presión para cumplir con sus objetivos de recaudación de fondos, Erica solicita la ayuda de Anna para chantajear a un recaudador de fondos canadiense y forzarlo a transferir los fondos al comité a través de una «donación» hecha por una empresa fantasma, mientras que entre ambas surge una pasión repentina al mezclar negocios con placer.

Bria
La otra historia, ambientada en Nuevo México, sigue a Bria Jones (Carmen Ejogo), una mujer que en el pasado se llamó Sarah Day y fue una acompañante VIP, que ahora se encuentra en el Programa de Protección de Testigos junto a su hijastra de trece años, Kayla (anteriormente llamada Katie) (Morgana Davies) a la espera de testificar en un juicio contra su mafioso exesposo y padre de Kayla. Para lidiar con la tensión del cambio a su alrededor, ella vuelve al negocio del acompañamiento, lo que amenaza su nueva identidad y el bienestar de su hijastra y del alguacil (Tunde Adebimpe) que está a cargo de cuidarlas, mientras que al mismo tiempo comienza a aterrarla la idea de que su exesposo la encuentre y la asesine antes de que pueda testificar contra él.

Español Latino EAC3 2.0 Amazon – Ingles EAC3 5.1 Amazon

Ficha técnica

Video trailer de la película

Enlaces de descarga

Rip de Bluray

Descargar The Girlfriend Experience (2017) Temporada 02 AMZN Web-DL 1080p Latino




Aportes de DPeliculasHDmega la pass es:dpeliculashdmega.org Aportes de CinemaniaHD la pass es:cinemaniahdd.com
Guardado en : Drama , Series

Películas relacionadas

descargar The Girlfriend Experience (2017) Temporada 02 AMZN Web-DL 1080p Latino WEBDL 1080p gratis, The Girlfriend Experience (2017) Temporada 02 AMZN Web-DL 1080p Latino WEBDL mega 1 link, The Girlfriend Experience (2017) Temporada 02 AMZN Web-DL 1080p Latino WEBDL serie completa, descargar The Girlfriend Experience (2017) Temporada 02 AMZN Web-DL 1080p Latino WEBDL gratis en mega.

The Girlfriend Experience (2017) Temporada 02 AMZN Web-DL 1080p Latino pelicula full hd, The Girlfriend Experience (2017) Temporada 02 AMZN Web-DL 1080p Latino mega latino, The Girlfriend Experience (2017) Temporada 02 AMZN Web-DL 1080p Latino 4k latino, The Girlfriend Experience (2017) Temporada 02 AMZN Web-DL 1080p Latino pelicula completa, The Girlfriend Experience (2017) Temporada 02 AMZN Web-DL 1080p Latino descargar gratis, descargar The Girlfriend Experience (2017) Temporada 02 AMZN Web-DL 1080p Latino pelicula latino, The Girlfriend Experience (2017) Temporada 02 AMZN Web-DL 1080p Latino 1 link mega, The Girlfriend Experience (2017) Temporada 02 AMZN Web-DL 1080p Latino 1 link google drive, The Girlfriend Experience (2017) Temporada 02 AMZN Web-DL 1080p Latino hd 1080p latino.
Comentarios 0